<?xml version="1.0" standalone="no"?>
<!DOCTYPE svg PUBLIC "-//W3C//DTD SVG 1.1//EN" "http://www.w3.org/Graphics/SVG/1.1/DTD/svg11.dtd" >
<svg xmlns="http://www.w3.org/2000/svg" xmlns:xlink="http://www.w3.org/1999/xlink" version="1.1">
<metadata>
Created by FontForge 20170731 at Wed Nov  7 06:08:49 2018
 By Aleksey,,,
Copyright 2017 The Barlow Project Authors (https://github.com/jpt/barlow)
</metadata>
<defs>
<font id="Barlow-SemiBold" horiz-adv-x="544" >
  <font-face 
    font-family="Barlow SemiBold"
    font-weight="600"
    font-stretch="normal"
    units-per-em="1000"
    panose-1="0 0 7 0 0 0 0 0 0 0"
    ascent="800"
    descent="-200"
    x-height="511"
    cap-height="700"
    bbox="-615 -214 1141 1094"
    underline-thickness="50"
    underline-position="-150"
    unicode-range="U+000D-FB02"
  />
<missing-glyph horiz-adv-x="454" 
d="M5 0h444q5 0 5 5v690q0 5 -5 5h-444q-5 0 -5 -5v-690q0 -5 5 -5zM180.5 247.5q-3.5 3.5 -3.5 8.5v26q0 34 17 55t50 45q28 21 42.5 37.5t14.5 41.5q0 28 -19 44.5t-51 16.5q-33 0 -53 -17.5t-20 -45.5v-12q0 -11 -12 -11l-59 3q-5 0 -8.5 3.5t-3.5 8.5v8q0 61 44 100
t114 39q69 0 110.5 -37t41.5 -98q0 -45 -19.5 -70.5t-56.5 -51.5q-25 -18 -37 -31.5t-12 -32.5v-21q0 -5 -3.5 -8.5t-8.5 -3.5h-59q-5 0 -8.5 3.5zM180 104.5q-14 14.5 -14 36.5t14 36t36 14t36 -14t14 -36t-14 -36.5t-36 -14.5t-36 14.5z" />
    <glyph glyph-name="fi" unicode="fi" horiz-adv-x="631" 
d="M336.5 508.5q3.5 -3.5 3.5 -8.5v-79q0 -5 -3.5 -8.5t-8.5 -3.5h-99q-5 0 -5 -5v-392q0 -5 -3.5 -8.5t-8.5 -3.5h-92q-5 0 -8.5 3.5t-3.5 8.5v392q0 5 -5 5h-62q-5 0 -8.5 3.5t-3.5 8.5v79q0 5 3.5 8.5t8.5 3.5h62q5 0 5 5v18q0 65 17 100.5t56 50.5t110 14h35
q5 0 8.5 -3.5t3.5 -8.5v-70q0 -5 -3.5 -8.5t-8.5 -3.5h-26q-43 0 -59.5 -17t-16.5 -62v-10q0 -5 5 -5h99q5 0 8.5 -3.5zM453 601q-20 20 -20 51t20 51t51 20t51 -20t20 -51t-20 -51t-51 -20t-51 20zM447.5 3.5q-3.5 3.5 -3.5 8.5v488q0 5 3.5 8.5t8.5 3.5h92q5 0 8.5 -3.5
t3.5 -8.5v-488q0 -5 -3.5 -8.5t-8.5 -3.5h-92q-5 0 -8.5 3.5z" />
    <glyph glyph-name="fl" unicode="fl" horiz-adv-x="615" 
d="M336.5 508.5q3.5 -3.5 3.5 -8.5v-79q0 -5 -3.5 -8.5t-8.5 -3.5h-99q-5 0 -5 -5v-392q0 -5 -3.5 -8.5t-8.5 -3.5h-92q-5 0 -8.5 3.5t-3.5 8.5v392q0 5 -5 5h-62q-5 0 -8.5 3.5t-3.5 8.5v79q0 5 3.5 8.5t8.5 3.5h62q5 0 5 5v18q0 65 17 100.5t56 50.5t110 14h35
q5 0 8.5 -3.5t3.5 -8.5v-70q0 -5 -3.5 -8.5t-8.5 -3.5h-26q-43 0 -59.5 -17t-16.5 -62v-10q0 -5 5 -5h99q5 0 8.5 -3.5zM441.5 3.5q-3.5 3.5 -3.5 8.5v676q0 5 3.5 8.5t8.5 3.5h92q5 0 8.5 -3.5t3.5 -8.5v-676q0 -5 -3.5 -8.5t-8.5 -3.5h-92q-5 0 -8.5 3.5z" />
    <glyph glyph-name="I_J.liga" unicode="IJ" horiz-adv-x="843" 
d="M76.5 3.5q-3.5 3.5 -3.5 8.5v676q0 5 3.5 8.5t8.5 3.5h92q5 0 8.5 -3.5t3.5 -8.5v-676q0 -5 -3.5 -8.5t-8.5 -3.5h-92q-5 0 -8.5 3.5zM399 19.5q-55 27.5 -85 77.5t-30 116v67q0 5 3.5 8.5t8.5 3.5h92q5 0 8.5 -3.5t3.5 -8.5v-67q0 -54 34.5 -87.5t92.5 -33.5
q56 0 92 33.5t36 87.5v475q0 5 3.5 8.5t8.5 3.5h91q5 0 8.5 -3.5t3.5 -8.5v-475q0 -66 -30.5 -116t-86 -77.5t-126.5 -27.5q-73 0 -128 27.5z" />
    <glyph glyph-name="f_f_i.liga" unicode="ffi" horiz-adv-x="960" 
d="M782.5 601q-19.5 20 -19.5 51t19.5 51t50.5 20t51 -20t20 -51t-20 -51t-51 -20t-50.5 20zM555 516q0 -5 5 -5h105q5 0 8.5 -3.5t3.5 -8.5v-70q0 -5 -3.5 -8.5t-8.5 -3.5h-105q-5 0 -5 -5v-400q0 -5 -3.5 -8.5t-8.5 -3.5h-92q-5 0 -8.5 3.5t-3.5 8.5v400q0 5 -5 5h-210
q-5 0 -5 -5v-400q0 -5 -3.5 -8.5t-8.5 -3.5h-92q-5 0 -8.5 3.5t-3.5 8.5v400q0 5 -5 5h-57q-5 0 -8.5 3.5t-3.5 8.5v70q0 5 3.5 8.5t8.5 3.5h57q5 0 5 5v33q0 82 42.5 118.5t143.5 32.5h34q5 0 8.5 -3.5t3.5 -8.5v-56q0 -5 -3.5 -8.5t-8.5 -3.5h-34q-40 -1 -55 -20.5
t-15 -60.5v-23q0 -5 5 -5h210q5 0 5 5v33q0 82 42.5 118.5t143.5 32.5h34q5 0 8.5 -3.5t3.5 -8.5v-56q0 -5 -3.5 -8.5t-8.5 -3.5h-34q-40 -1 -55 -20.5t-15 -60.5v-23zM776.5 3.5q-3.5 3.5 -3.5 8.5v488q0 5 3.5 8.5t8.5 3.5h92q5 0 8.5 -3.5t3.5 -8.5v-488q0 -5 -3.5 -8.5
t-8.5 -3.5h-92q-5 0 -8.5 3.5z" />
    <glyph glyph-name="f_f_l.liga" unicode="ffl" horiz-adv-x="945" 
d="M555 516q0 -5 5 -5h105q5 0 8.5 -3.5t3.5 -8.5v-70q0 -5 -3.5 -8.5t-8.5 -3.5h-105q-5 0 -5 -5v-400q0 -5 -3.5 -8.5t-8.5 -3.5h-92q-5 0 -8.5 3.5t-3.5 8.5v400q0 5 -5 5h-210q-5 0 -5 -5v-400q0 -5 -3.5 -8.5t-8.5 -3.5h-92q-5 0 -8.5 3.5t-3.5 8.5v400q0 5 -5 5h-57
q-5 0 -8.5 3.5t-3.5 8.5v70q0 5 3.5 8.5t8.5 3.5h57q5 0 5 5v33q0 82 42.5 118.5t143.5 32.5h34q5 0 8.5 -3.5t3.5 -8.5v-56q0 -5 -3.5 -8.5t-8.5 -3.5h-34q-40 -1 -55 -20.5t-15 -60.5v-23q0 -5 5 -5h210q5 0 5 5v33q0 82 42.5 118.5t143.5 32.5h34q5 0 8.5 -3.5t3.5 -8.5
v-56q0 -5 -3.5 -8.5t-8.5 -3.5h-34q-40 -1 -55 -20.5t-15 -60.5v-23zM770.5 696.5q3.5 3.5 8.5 3.5h92q5 0 8.5 -3.5t3.5 -8.5v-676q0 -5 -3.5 -8.5t-8.5 -3.5h-92q-5 0 -8.5 3.5t-3.5 8.5v676q0 5 3.5 8.5z" />
    <glyph glyph-name="g_j.liga" unicode="gj" horiz-adv-x="793" 
d="M614.5 601q-19.5 20 -19.5 51t19.5 51t50.5 20q32 0 51.5 -19.5t19.5 -51.5q0 -31 -20 -51t-51 -20t-50.5 20zM373 471q2 1 2 4v24q0 5 3.5 8.5t8.5 3.5h92q5 0 8.5 -3.5t3.5 -8.5v-465q0 -125 -71.5 -178.5t-187.5 -53.5q-31 0 -61 3q-11 1 -11 13l3 82q0 11 14 11
q29 -3 52 -3q75 0 110.5 29.5t35.5 99.5v8q0 3 -2 3.5t-4 -1.5q-41 -44 -116 -44q-65 0 -119 33t-75 101q-13 47 -13 121q0 83 16 127q20 61 69 97.5t115 36.5q79 0 123 -46q2 -3 4 -2zM608 499q0 5 3.5 8.5t8.5 3.5h92q5 0 8.5 -3.5t3.5 -8.5v-515q0 -104 -49.5 -147.5
t-161.5 -41.5q-12 0 -12 12v73q0 12 12 12q45 0 70 22.5t25 68.5v516zM373.5 202.5q1.5 17.5 1.5 56.5q0 38 -1.5 54.5t-6.5 32.5q-8 33 -32.5 53t-62.5 20q-36 0 -61 -20t-36 -53q-12 -28 -12 -88q0 -62 10 -87q10 -32 36.5 -52.5t63.5 -20.5q39 0 63 20t32 52
q4 15 5.5 32.5z" />
    <glyph glyph-name="i_j.liga" unicode="ij" horiz-adv-x="505" 
d="M76.5 601q-19.5 20 -19.5 51t19.5 51t50.5 20q32 0 51.5 -19.5t19.5 -51.5q0 -31 -20 -51t-51 -20t-50.5 20zM323 601q-20 20 -20 51t20 51t51 20t50.5 -20t19.5 -51t-20 -51t-50 -20q-31 0 -51 20zM76.5 3.5q-3.5 3.5 -3.5 8.5v487q0 5 3.5 8.5t8.5 3.5h92q5 0 8.5 -3.5
t3.5 -8.5v-487q0 -5 -3.5 -8.5t-8.5 -3.5h-92q-5 0 -8.5 3.5zM201 -193v74q0 12 13 11q57 -1 81 20.5t24 70.5v516q0 5 3.5 8.5t8.5 3.5h92q5 0 8.5 -3.5t3.5 -8.5v-515q0 -72 -20.5 -113.5t-68.5 -59.5t-133 -16q-12 0 -12 12z" />
    <glyph glyph-name="hyphen_hyphen.liga" unicode="&#x2d;&#x2d;" horiz-adv-x="668" 
d="M35.5 250.5q-3.5 3.5 -3.5 8.5v75q0 5 3.5 8.5t8.5 3.5h580q5 0 8.5 -3.5t3.5 -8.5v-75q0 -5 -3.5 -8.5t-8.5 -3.5h-580q-5 0 -8.5 3.5z" />
    <glyph glyph-name=".notdef" horiz-adv-x="454" 
d="M5 0h444q5 0 5 5v690q0 5 -5 5h-444q-5 0 -5 -5v-690q0 -5 5 -5zM180.5 247.5q-3.5 3.5 -3.5 8.5v26q0 34 17 55t50 45q28 21 42.5 37.5t14.5 41.5q0 28 -19 44.5t-51 16.5q-33 0 -53 -17.5t-20 -45.5v-12q0 -11 -12 -11l-59 3q-5 0 -8.5 3.5t-3.5 8.5v8q0 61 44 100
t114 39q69 0 110.5 -37t41.5 -98q0 -45 -19.5 -70.5t-56.5 -51.5q-25 -18 -37 -31.5t-12 -32.5v-21q0 -5 -3.5 -8.5t-8.5 -3.5h-59q-5 0 -8.5 3.5zM180 104.5q-14 14.5 -14 36.5t14 36t36 14t36 -14t14 -36t-14 -36.5t-36 -14.5t-36 14.5z" />
    <glyph glyph-name=".null" horiz-adv-x="0" 
 />
    <glyph glyph-name="nonmarkingreturn" unicode="&#xd;" horiz-adv-x="200" 
 />
    <glyph glyph-name="NULL" horiz-adv-x="0" 
 />
    <glyph glyph-name="NULL" horiz-adv-x="0" 
 />
    <glyph glyph-name="space" unicode=" " horiz-adv-x="200" 
 />
    <glyph glyph-name="exclam" unicode="!" horiz-adv-x="335" 
d="M125.5 239.5q-3.5 3.5 -3.5 8.5l-11 440q0 5 3.5 8.5t8.5 3.5h92q5 0 8.5 -3.5t3.5 -8.5l-11 -440q0 -5 -3.5 -8.5t-8.5 -3.5h-70q-5 0 -8.5 3.5zM112.5 22q-19.5 20 -19.5 51t19.5 50.5t50.5 19.5t51 -19.5t20 -50.5t-20 -51t-51 -20t-50.5 20z" />
    <glyph glyph-name="quotedbl" unicode="&#x22;" horiz-adv-x="325" 
d="M35 480.5q-4 3.5 -4 8.5l-10 196q0 12 11 12h88q11 0 11 -12l-10 -196q0 -5 -4 -8.5t-9 -3.5h-64q-5 0 -9 3.5zM210 480.5q-4 3.5 -4 8.5l-10 196q0 12 11 12h88q11 0 11 -12l-10 -196q0 -5 -4 -8.5t-9 -3.5h-64q-5 0 -9 3.5z" />
    <glyph glyph-name="numbersign" unicode="#" horiz-adv-x="677" 
d="M616.5 416.5q-3.5 -3.5 -8.5 -3.5h-74q-6 0 -6 -5l-19 -120q0 -5 4 -5h59q5 0 8.5 -3.5t3.5 -8.5v-75q0 -5 -3.5 -8.5t-8.5 -3.5h-74q-6 0 -6 -5l-22 -145q-1 -11 -13 -11l-92 1q-12 0 -11 13l22 142q0 5 -4 5h-120q-6 0 -6 -5l-22 -145q-1 -11 -13 -11l-92 1
q-12 0 -11 13l22 142q0 5 -4 5h-58q-5 0 -8.5 3.5t-3.5 8.5v75q0 5 3.5 8.5t8.5 3.5h73q6 0 6 5l18 120q0 5 -4 5h-56q-5 0 -8.5 3.5t-3.5 8.5v76q0 5 3.5 8.5t8.5 3.5h72q6 0 6 5l22 145q1 11 13 11l92 -1q12 0 11 -13l-22 -142q0 -5 4 -5h120q6 0 6 5l22 145q1 11 13 11
l92 -1q12 0 11 -13l-22 -142q0 -5 4 -5h60q5 0 8.5 -3.5t3.5 -8.5l-1 -76q0 -5 -3.5 -8.5zM393 288l18 120q0 5 -4 5h-119q-6 0 -6 -5l-19 -120q0 -5 4 -5h120q6 0 6 5z" />
    <glyph glyph-name="dollar" unicode="$" horiz-adv-x="567" 
d="M474 58q-49 -51 -136 -62q-5 -2 -5 -6l1 -66q0 -5 -3.5 -8.5t-8.5 -3.5h-78q-5 0 -8.5 3.5t-3.5 8.5l1 67q0 4 -5 6q-87 14 -136.5 65.5t-49.5 130.5v25q0 5 3.5 8.5t8.5 3.5h84q5 0 8.5 -3.5t3.5 -8.5v-19q0 -46 39 -76.5t106 -30.5q59 0 88.5 26t29.5 67q0 28 -16 47.5
t-46.5 35t-90.5 40.5q-67 26 -109 49t-70 62.5t-28 98.5q0 76 46.5 125t126.5 61q5 2 5 6l-2 74q0 5 3.5 8.5t8.5 3.5h78q5 0 8.5 -3.5t3.5 -8.5l-2 -75q0 -4 5 -6q85 -14 134.5 -68t49.5 -133v-17q0 -5 -3.5 -8.5t-8.5 -3.5h-85q-5 0 -8.5 3.5t-3.5 8.5v11q0 47 -36.5 79.5
t-100.5 32.5q-53 0 -82 -23t-29 -65q0 -30 15.5 -49t46 -34.5t93.5 -39.5q68 -27 108.5 -49t69.5 -61.5t29 -98.5q0 -79 -49 -130z" />
    <glyph glyph-name="percent" unicode="%" horiz-adv-x="833" 
d="M149.5 424.5q-35.5 20.5 -56 55.5t-20.5 77q0 41 20.5 76t56 55.5t77.5 20.5q41 0 76.5 -20.5t56 -55.5t20.5 -76q0 -42 -20.5 -77t-55.5 -55.5t-77 -20.5t-77.5 20.5zM185 4q-2 4 1 10l377 678q5 8 15 8h58q7 0 9 -4t-1 -10l-376 -678q-5 -8 -15 -8h-59q-7 0 -9 4z
M284.5 498q23.5 24 23.5 59q0 34 -23.5 58t-57.5 24q-35 0 -59 -24t-24 -58q0 -35 24 -59t59 -24q34 0 57.5 24zM534.5 11.5q-35.5 20.5 -56 55.5t-20.5 77q0 41 20.5 76t56 55.5t77.5 20.5q41 0 76.5 -20.5t56 -55.5t20.5 -76q0 -42 -20.5 -77t-55.5 -55.5t-77 -20.5
t-77.5 20.5zM670 85q24 24 24 59q0 34 -24 58t-58 24q-35 0 -59 -24t-24 -58q0 -35 24 -59t59 -24q34 0 58 24z" />
    <glyph glyph-name="ampersand" unicode="&#x26;" horiz-adv-x="688" 
d="M635 7q0 -7 -10 -7h-103q-9 0 -15 7l-45 50q-3 3 -7 0q-92 -65 -202 -65q-92 0 -151.5 43.5t-59.5 127.5q0 68 37.5 115t101.5 87q6 4 1 7q-53 64 -70 99t-17 73q0 46 24 83.5t67.5 59t99.5 21.5q58 0 103 -21.5t70.5 -60.5t25.5 -90q0 -61 -36 -107t-97 -84q-5 -3 -1 -7
q46 -54 112 -127q3 -4 7 0q24 26 62 80q6 11 16 4l68 -39q12 -7 4 -16q-42 -64 -83 -110l-1 -2q0 -4 4 -8q36 -42 70 -80q7 -9 12.5 -15t9.5 -10q3 -4 3 -8zM232.5 583q-21.5 -19 -21.5 -50q0 -17 12 -38t51 -68q3 -4 7 -1q43 27 65.5 52.5t22.5 55.5q0 31 -22 49.5
t-58 18.5q-35 0 -56.5 -19zM385 135q4 4 0 7q-5 5 -10 11l-10 12q-13 15 -43 49l-23 26q-16 17 -39 44q-2 3 -7 1q-45 -29 -69 -57t-24 -63q0 -34 25.5 -54.5t68.5 -20.5q62 0 131 45z" />
    <glyph glyph-name="quotesingle" unicode="'" horiz-adv-x="155" 
d="M35 483.5q-4 3.5 -4 8.5l-10 195q0 12 11 12h94q11 0 11 -12l-11 -195q0 -5 -4 -8.5t-9 -3.5h-69q-5 0 -9 3.5z" />
    <glyph glyph-name="parenleft" unicode="(" horiz-adv-x="316" 
d="M120 -89q-55 75 -88.5 182.5t-33.5 236.5q0 130 33.5 238.5t89.5 184.5q4 7 14 7h88q7 0 9.5 -4t-0.5 -10q-46 -80 -75 -186.5t-29 -229.5q0 -122 29 -227t75 -185q2 -4 2 -6q0 -8 -11 -8h-89q-10 0 -14 7z" />
    <glyph glyph-name="parenright" unicode=")" horiz-adv-x="316" 
d="M197 753q55 -75 88.5 -182.5t33.5 -235.5q0 -129 -34 -238.5t-90 -185.5q-4 -7 -14 -7h-88q-7 0 -9.5 4t0.5 10q46 80 75 186.5t29 229.5t-29 228t-75 184q-2 4 -2 6q0 8 11 8h90q10 0 14 -7z" />
    <glyph glyph-name="asterisk" unicode="*" horiz-adv-x="398" 
d="M168.5 396.5q-3.5 3.5 -3.5 8.5v100q0 3 -2 4.5t-4 -0.5l-92 -54q-4 -2 -6 -2q-7 0 -11 7l-22 40q-2 4 -2 6q0 7 7 11l93 51q5 3 0 6l-93 49q-5 2 -6.5 7t1.5 10l22 40q3 5 7.5 6.5t9.5 -1.5l92 -53q2 -1 4 0t2 4v99q0 5 3.5 8.5t8.5 3.5h44q5 0 8.5 -3.5t3.5 -8.5v-99
q0 -3 2 -4.5t4 0.5l92 53q4 2 6 2q7 0 11 -7l22 -40q2 -4 2 -7q0 -7 -7 -10l-94 -49q-5 -3 0 -6l94 -51q11 -6 5 -17l-22 -40q-3 -5 -7.5 -6.5t-9.5 1.5l-92 54q-2 2 -4 0.5t-2 -4.5v-100q0 -5 -3.5 -8.5t-8.5 -3.5h-44q-5 0 -8.5 3.5z" />
    <glyph glyph-name="plus" unicode="+" horiz-adv-x="491" 
d="M454.5 351.5q3.5 -3.5 3.5 -8.5v-76q0 -5 -3.5 -8.5t-8.5 -3.5h-146q-5 0 -5 -5v-144q0 -5 -3.5 -8.5t-8.5 -3.5h-75q-5 0 -8.5 3.5t-3.5 8.5v144q0 5 -5 5h-147q-5 0 -8.5 3.5t-3.5 8.5v76q0 5 3.5 8.5t8.5 3.5h147q5 0 5 5v148q0 5 3.5 8.5t8.5 3.5h75q5 0 8.5 -3.5
t3.5 -8.5v-148q0 -5 5 -5h146q5 0 8.5 -3.5z" />
    <glyph glyph-name="comma" unicode="," horiz-adv-x="265" 
d="M50 -78l37 224q1 11 13 11h80q13 0 10 -13l-59 -225q-3 -10 -14 -10h-56q-12 0 -11 13z" />
    <glyph glyph-name="hyphen" unicode="-" horiz-adv-x="404" 
d="M35.5 254.5q-3.5 3.5 -3.5 8.5v76q0 5 3.5 8.5t8.5 3.5h315q5 0 8.5 -3.5t3.5 -8.5v-76q0 -5 -3.5 -8.5t-8.5 -3.5h-315q-5 0 -8.5 3.5z" />
    <glyph glyph-name="period" unicode="." horiz-adv-x="273" 
d="M82 18q-20 20 -20 51t20 51t51 20t50.5 -20t19.5 -51t-20 -51t-50 -20q-31 0 -51 20z" />
    <glyph glyph-name="slash" unicode="/" horiz-adv-x="447" 
d="M28 3.5q-3 3.5 -1 10.5l245 676q3 10 13 10h91q6 0 9 -3.5t1 -10.5l-245 -676q-3 -10 -13 -10h-91q-6 0 -9 3.5z" />
    <glyph glyph-name="zero" unicode="0" horiz-adv-x="568" 
d="M116.5 48.5q-61.5 59.5 -61.5 160.5v282q0 100 61.5 158.5t166.5 58.5t167.5 -58.5t62.5 -158.5v-282q0 -101 -62.5 -160.5t-167.5 -59.5t-166.5 59.5zM366 120.5q31 30.5 31 82.5v292q0 52 -31 82.5t-83 30.5q-51 0 -81.5 -30.5t-30.5 -82.5v-292q0 -52 30.5 -82.5
t81.5 -30.5q52 0 83 30.5z" />
    <glyph glyph-name="one" unicode="1" horiz-adv-x="353" 
d="M175 700h96q5 0 8.5 -3.5t3.5 -8.5v-676q0 -5 -3.5 -8.5t-8.5 -3.5h-92q-5 0 -8.5 3.5t-3.5 8.5v568q0 2 -2 3.5t-4 0.5l-100 -31q-2 -1 -5 -1q-4 0 -6.5 3t-2.5 8l-3 66q0 10 8 14l108 54q8 3 15 3z" />
    <glyph glyph-name="two" unicode="2" horiz-adv-x="551" 
d="M203.5 102q0.5 -2 3.5 -2h285q5 0 8.5 -3.5t3.5 -8.5v-76q0 -5 -3.5 -8.5t-8.5 -3.5h-430q-5 0 -8.5 3.5t-3.5 8.5v72q0 9 6 15q76 81 176 199l47 55q92 107 92 162q0 41 -29 67t-75 26t-74.5 -26t-28.5 -69v-26q0 -5 -3.5 -8.5t-8.5 -3.5h-93q-5 0 -8.5 3.5t-3.5 8.5v43
q2 54 31 94t78.5 62t110.5 22q67 0 117 -25t77 -68.5t27 -97.5q0 -82 -87 -189q-48 -60 -158 -180l-38 -42q-2 -2 -1.5 -4z" />
    <glyph glyph-name="three" unicode="3" horiz-adv-x="531" 
d="M480 223q0 -56 -17 -99q-23 -63 -76 -97.5t-128 -34.5q-74 0 -128.5 37.5t-77.5 101.5q-12 31 -14 81q0 12 12 12h93q12 0 12 -12q2 -32 10 -51q9 -32 33.5 -50.5t59.5 -18.5q66 0 91 60q13 29 13 75q0 51 -15 84q-26 56 -90 56q-17 0 -46 -20q-4 -2 -7 -2q-5 0 -10 6
l-46 64q-3 5 -3 8q0 5 4 9l165 162q2 2 1 4t-4 2h-250q-5 0 -8.5 3.5t-3.5 8.5v76q0 5 3.5 8.5t8.5 3.5h399q5 0 8.5 -3.5t3.5 -8.5v-87q0 -9 -6 -15l-143 -144q-4 -4 4 -6q93 -13 132 -103q20 -48 20 -110z" />
    <glyph glyph-name="four" unicode="4" horiz-adv-x="585" 
d="M530.5 284.5q3.5 -3.5 3.5 -8.5v-80q0 -5 -3.5 -8.5t-8.5 -3.5h-42q-5 0 -5 -5v-167q0 -5 -3.5 -8.5t-8.5 -3.5h-92q-5 0 -8.5 3.5t-3.5 8.5v167q0 5 -5 5h-304q-5 0 -8.5 3.5t-3.5 8.5v64q0 6 3 15l189 416q4 9 14 9h98q7 0 9.5 -3.5t-0.5 -10.5l-178 -392q-1 -2 0 -4
t3 -2h178q5 0 5 5v136q0 5 3.5 8.5t8.5 3.5h92q5 0 8.5 -3.5t3.5 -8.5v-136q0 -5 5 -5h42q5 0 8.5 -3.5z" />
    <glyph glyph-name="five" unicode="5" horiz-adv-x="530" 
d="M491 221q0 -47 -13 -89q-21 -64 -77 -101.5t-131 -37.5q-74 0 -129 36.5t-77 98.5q-8 22 -13 50v2q0 11 12 11h95q10 0 13 -11q1 -6 5 -18q11 -33 35 -51t58 -18q35 0 60 19.5t35 53.5q9 24 9 55q0 29 -8 57q-7 33 -32 50.5t-61 17.5q-34 0 -61.5 -15.5t-35.5 -40.5
q-4 -10 -14 -10h-97q-5 0 -8.5 3.5t-3.5 8.5v396q0 5 3.5 8.5t8.5 3.5h389q5 0 8.5 -3.5t3.5 -8.5v-76q0 -5 -3.5 -8.5t-8.5 -3.5h-280q-5 0 -5 -5l-1 -180q0 -4 2 -4.5t4 1.5q47 35 113 35q70 0 121.5 -35.5t70.5 -97.5q13 -45 13 -93z" />
    <glyph glyph-name="six" unicode="6" horiz-adv-x="529" 
d="M490 221q0 -61 -20 -107q-24 -58 -75.5 -89.5t-123.5 -31.5q-75 0 -128 34.5t-76 96.5q-16 42 -16 98v305q0 54 27 95t75.5 63.5t111.5 22.5q61 0 108.5 -22t74 -62t26.5 -92v-22q0 -5 -3.5 -8.5t-8.5 -3.5h-92q-5 0 -8.5 3.5t-3.5 8.5v7q0 40 -26.5 65.5t-67.5 25.5
q-42 0 -69.5 -26.5t-27.5 -68.5v-109q0 -3 2 -4t4 1q42 41 116 41q59 0 103.5 -25t70.5 -72q27 -51 27 -124zM374 219q0 45 -17 77q-28 48 -87 48q-62 0 -88 -50q-15 -30 -15 -78q0 -41 13 -67q24 -55 90 -55q63 0 89 54q15 30 15 71z" />
    <glyph glyph-name="seven" unicode="7" horiz-adv-x="488" 
d="M125 14l221 580q2 6 -4 6h-215q-5 0 -5 -5v-45q0 -5 -3.5 -8.5t-8.5 -3.5h-72q-5 0 -8.5 3.5t-3.5 8.5v138q0 5 3.5 8.5t8.5 3.5h421q5 0 8.5 -3.5t3.5 -8.5v-80q0 -6 -3 -15l-220 -583q-3 -10 -14 -10h-99q-15 0 -10 14z" />
    <glyph glyph-name="eight" unicode="8" horiz-adv-x="533" 
d="M487 202q0 -60 -26 -109q-26 -47 -76 -74t-118 -27q-67 0 -119 26.5t-78 77.5q-26 47 -26 107q0 54 23 102q20 41 57 62q5 3 1 7q-25 18 -45 50q-26 42 -26 93q0 63 37 113q27 39 73 60.5t103 21.5q59 0 103.5 -21.5t71.5 -60.5q35 -51 35 -113q0 -55 -27 -96
q-19 -28 -44 -46q-4 -4 0 -7q38 -22 59 -65q22 -44 22 -101zM169 515q0 -34 17 -61q24 -41 80 -41q54 0 82 42q15 22 15 61q0 22 -11 46q-13 23 -35 36.5t-52 13.5q-28 0 -50 -13.5t-34 -37.5q-12 -26 -12 -46zM370 212q0 46 -16 72q-25 46 -88 46q-59 0 -86 -44
q-17 -27 -17 -75q0 -46 18 -75q27 -44 86 -44q56 0 82 41q21 29 21 79z" />
    <glyph glyph-name="nine" unicode="9" horiz-adv-x="527" 
d="M477 478v-305q0 -54 -27 -95t-75.5 -63.5t-111.5 -22.5q-61 0 -108.5 22t-74 62t-26.5 92v22q0 5 3.5 8.5t8.5 3.5h92q5 0 8.5 -3.5t3.5 -8.5v-7q0 -40 26 -65.5t67 -25.5q43 0 70.5 26.5t27.5 68.5v110q0 3 -2 4t-4 -1q-43 -42 -117 -42q-59 0 -103.5 25t-69.5 72
q-28 50 -28 124q0 61 20 107q24 57 76 89t123 32q75 0 128.5 -34.5t76.5 -96.5q16 -42 16 -98zM361 484q0 38 -13 67q-24 55 -90 55q-64 0 -90 -54q-15 -33 -15 -71q0 -45 18 -77q28 -48 86 -48q62 0 88 50q16 32 16 78z" />
    <glyph glyph-name="colon" unicode=":" horiz-adv-x="355" 
d="M125 358q-20 20 -20 51t20 51t51 20t50.5 -20t19.5 -51t-20 -51t-50 -20q-31 0 -51 20zM125 28q-20 20 -20 51t20 51t51 20t50.5 -20t19.5 -51t-20 -51t-50 -20q-31 0 -51 20z" />
    <glyph glyph-name="semicolon" unicode=";" horiz-adv-x="314" 
d="M101 347.5q-23 22.5 -23 55.5q0 31 24.5 53.5t56.5 22.5t56.5 -22.5t24.5 -53.5q0 -32 -23.5 -55t-57.5 -23q-35 0 -58 22.5zM86.5 -85.5q-3.5 3.5 -2.5 9.5l25 219q1 11 12 11h81q14 0 11 -13l-50 -219q-3 -11 -13 -11h-54q-6 0 -9.5 3.5z" />
    <glyph glyph-name="less" unicode="&#x3c;" horiz-adv-x="491" 
d="M454 35.5q-4 -2.5 -10 0.5l-403 182q-9 5 -9 14v81q0 10 9 14l403 182q4 2 6 2q8 0 8 -11v-87q0 -9 -9 -14l-291 -123q-6 -3 0 -6l291 -124q9 -4 9 -14v-87q0 -7 -4 -9.5z" />
    <glyph glyph-name="equal" unicode="=" horiz-adv-x="491" 
d="M35.5 356.5q-3.5 3.5 -3.5 8.5v76q0 5 3.5 8.5t8.5 3.5h402q5 0 8.5 -3.5t3.5 -8.5v-76q0 -5 -3.5 -8.5t-8.5 -3.5h-402q-5 0 -8.5 3.5zM35.5 158.5q-3.5 3.5 -3.5 8.5v76q0 5 3.5 8.5t8.5 3.5h402q5 0 8.5 -3.5t3.5 -8.5v-76q0 -5 -3.5 -8.5t-8.5 -3.5h-402
q-5 0 -8.5 3.5z" />
    <glyph glyph-name="greater" unicode="&#x3e;" horiz-adv-x="491" 
d="M40 34q-8 0 -8 11v87q0 10 9 14l291 124q6 3 0 6l-291 123q-9 5 -9 14v87q0 7 4 9.5t10 -0.5l403 -182q9 -4 9 -14v-81q0 -9 -9 -14l-403 -182q-4 -2 -6 -2z" />
    <glyph glyph-name="question" unicode="?" horiz-adv-x="500" 
d="M177.5 217.5q-3.5 3.5 -3.5 8.5v41q0 48 24 77.5t70 62.5q40 29 60 52.5t20 58.5q0 39 -27 62.5t-71 23.5q-46 0 -74 -25t-28 -64v-21q0 -11 -12 -11l-92 4q-5 0 -8.5 4t-3.5 9v15q0 57 28 101.5t78 69t115 24.5q97 0 155 -51.5t58 -136.5q0 -44 -15.5 -76t-36 -52
t-55.5 -45t-52 -43.5t-17 -45.5v-34q0 -5 -3.5 -8.5t-8.5 -3.5h-92q-5 0 -8.5 3.5zM178 19q-20 20 -20 51t20 50.5t51 19.5t50.5 -19.5t19.5 -50.5t-20 -51t-50 -20q-31 0 -51 20z" />
    <glyph glyph-name="at" unicode="@" horiz-adv-x="821" 
d="M622 605q72 -38 111.5 -106.5t39.5 -158.5q0 -25 -3 -52q-13 -96 -60 -149t-122 -53q-71 0 -107 44q-3 3 -7 0q-19 -21 -46.5 -32t-55.5 -11q-55 0 -90.5 27.5t-41.5 70.5q-3 15 -3 32q0 22 5 54q6 51 19 84q17 48 55.5 74t84.5 26q50 0 78 -31q5 -5 6 2l2 14q1 11 13 11
h55q12 0 11 -13l-26 -193q-1 -6 -1 -17q0 -30 14.5 -49.5t41.5 -19.5q34 0 57.5 32.5t32.5 92.5q4 25 4 53q0 110 -65.5 170.5t-174.5 60.5q-82 0 -152.5 -36t-115 -105t-51.5 -164q-2 -24 -2 -34q0 -73 29 -128.5t82.5 -85.5t126.5 -30q48 0 91 11t68 28q5 3 8 3t8 -5
l31 -39q3 -5 3 -8q0 -5 -5 -8q-36 -27 -94 -43t-120 -16q-91 0 -161 40t-109 113t-39 170q0 14 2 42q10 111 67.5 195t147 129.5t191.5 45.5q95 0 167 -38zM420.5 169q17.5 14 27.5 37q6 12 9 25t6 41q4 28 4 44q0 9 -2 21q-2 22 -17.5 36t-39.5 14q-25 0 -44.5 -14
t-28.5 -36q-9 -17 -16 -69q-4 -27 -4 -43q0 -9 2 -19q3 -23 19.5 -37t42.5 -14q24 0 41.5 14z" />
    <glyph glyph-name="A" unicode="A" horiz-adv-x="648" 
d="M494 10l-33 107q-2 4 -5 4h-264q-3 0 -5 -4l-33 -107q-3 -10 -13 -10h-100q-6 0 -9 3.5t-1 10.5l217 676q3 10 13 10h125q10 0 13 -10l218 -676q1 -2 1 -5q0 -9 -11 -9h-100q-10 0 -13 10zM222 212h203q6 0 4 6l-103 335q-1 4 -3 4t-3 -4l-102 -335q-1 -6 4 -6z" />
    <glyph glyph-name="B" unicode="B" horiz-adv-x="622" 
d="M464 359q102 -48 102 -165q0 -95 -63.5 -144.5t-165.5 -49.5h-252q-5 0 -8.5 3.5t-3.5 8.5v676q0 5 3.5 8.5t8.5 3.5h244q109 0 168 -47t59 -142q0 -105 -92 -146q-6 -3 0 -6zM189 595v-185q0 -5 5 -5h135q53 0 83.5 25.5t30.5 70.5q0 46 -30.5 72.5t-83.5 26.5h-135
q-5 0 -5 -5zM419.5 129q30.5 28 30.5 76q0 49 -31 76.5t-84 27.5h-141q-5 0 -5 -5v-198q0 -5 5 -5h143q52 0 82.5 28z" />
    <glyph glyph-name="C" unicode="C" horiz-adv-x="608" 
d="M175 21.5q-57 29.5 -88 82.5t-31 123v247q0 70 31 123t88 82t132 29q74 0 131 -28t88 -79t31 -118q0 -5 -3.5 -8.5t-8.5 -3.5l-92 -5q-12 0 -12 11q0 59 -36.5 95t-97.5 36t-98 -36t-37 -95v-255q0 -58 37 -94t98 -36t97.5 35.5t36.5 94.5q0 11 12 11l92 -4q5 0 8.5 -3
t3.5 -7q0 -68 -31 -119.5t-88 -79.5t-131 -28q-75 0 -132 29.5z" />
    <glyph glyph-name="D" unicode="D" horiz-adv-x="618" 
d="M76.5 3.5q-3.5 3.5 -3.5 8.5v676q0 5 3.5 8.5t8.5 3.5h244q71 0 125 -25t83.5 -71.5t29.5 -108.5v-290q0 -62 -29.5 -108.5t-83.5 -71.5t-125 -25h-244q-5 0 -8.5 3.5zM194 100h140q53 0 84.5 33.5t32.5 89.5v253q0 57 -32 90.5t-86 33.5h-139q-5 0 -5 -5v-490q0 -5 5 -5
z" />
    <glyph glyph-name="E" unicode="E" horiz-adv-x="592" 
d="M543.5 603.5q-3.5 -3.5 -8.5 -3.5h-341q-5 0 -5 -5v-187q0 -5 5 -5h229q5 0 8.5 -3.5t3.5 -8.5v-76q0 -5 -3.5 -8.5t-8.5 -3.5h-229q-5 0 -5 -5v-193q0 -5 5 -5h341q5 0 8.5 -3.5t3.5 -8.5v-76q0 -5 -3.5 -8.5t-8.5 -3.5h-450q-5 0 -8.5 3.5t-3.5 8.5v676q0 5 3.5 8.5
t8.5 3.5h450q5 0 8.5 -3.5t3.5 -8.5v-76q0 -5 -3.5 -8.5z" />
    <glyph glyph-name="F" unicode="F" horiz-adv-x="563" 
d="M542.5 603.5q-3.5 -3.5 -8.5 -3.5h-340q-5 0 -5 -5v-187q0 -5 5 -5h229q5 0 8.5 -3.5t3.5 -8.5v-76q0 -5 -3.5 -8.5t-8.5 -3.5h-229q-5 0 -5 -5v-286q0 -5 -3.5 -8.5t-8.5 -3.5h-92q-5 0 -8.5 3.5t-3.5 8.5v676q0 5 3.5 8.5t8.5 3.5h449q5 0 8.5 -3.5t3.5 -8.5v-76
q0 -5 -3.5 -8.5z" />
    <glyph glyph-name="G" unicode="G" horiz-adv-x="613" 
d="M175 21.5q-57 29.5 -88 83.5t-31 124v242q0 71 31 124.5t88 83t132 29.5q74 0 130.5 -29t87.5 -79t31 -113v-8q0 -5 -3.5 -8.5t-8.5 -3.5h-91q-5 0 -8.5 3.5t-3.5 8.5v5q0 54 -36.5 89t-97.5 35t-98 -36.5t-37 -96.5v-250q0 -60 39 -96.5t101 -36.5q60 0 94.5 31.5
t34.5 86.5v62q0 5 -5 5h-123q-5 0 -8.5 3.5t-3.5 8.5v74q0 5 3.5 8.5t8.5 3.5h231q5 0 8.5 -3.5t3.5 -8.5v-128q0 -115 -67.5 -179t-181.5 -64q-75 0 -132 29.5z" />
    <glyph glyph-name="H" unicode="H" horiz-adv-x="637" 
d="M457.5 696.5q3.5 3.5 8.5 3.5h92q5 0 8.5 -3.5t3.5 -8.5v-676q0 -5 -3.5 -8.5t-8.5 -3.5h-92q-5 0 -8.5 3.5t-3.5 8.5v286q0 5 -5 5h-255q-5 0 -5 -5v-286q0 -5 -3.5 -8.5t-8.5 -3.5h-92q-5 0 -8.5 3.5t-3.5 8.5v676q0 5 3.5 8.5t8.5 3.5h92q5 0 8.5 -3.5t3.5 -8.5v-280
q0 -5 5 -5h255q5 0 5 5v280q0 5 3.5 8.5z" />
    <glyph glyph-name="I" unicode="I" horiz-adv-x="262" 
d="M76.5 3.5q-3.5 3.5 -3.5 8.5v676q0 5 3.5 8.5t8.5 3.5h92q5 0 8.5 -3.5t3.5 -8.5v-676q0 -5 -3.5 -8.5t-8.5 -3.5h-92q-5 0 -8.5 3.5z" />
    <glyph glyph-name="J" unicode="J" horiz-adv-x="581" 
d="M137 19.5q-55 27.5 -85 77.5t-30 116v67q0 5 3.5 8.5t8.5 3.5h92q5 0 8.5 -3.5t3.5 -8.5v-67q0 -54 34.5 -87.5t92.5 -33.5q56 0 92 33.5t36 87.5v475q0 5 3.5 8.5t8.5 3.5h91q5 0 8.5 -3.5t3.5 -8.5v-475q0 -66 -30.5 -116t-86 -77.5t-126.5 -27.5q-73 0 -128 27.5z" />
    <glyph glyph-name="K" unicode="K" horiz-adv-x="620" 
d="M76.5 3.5q-3.5 3.5 -3.5 8.5v676q0 5 3.5 8.5t8.5 3.5h92q5 0 8.5 -3.5t3.5 -8.5v-299q0 -3 2 -4t4 1l260 307q6 7 15 7h104q10 0 10 -7q0 -3 -3 -8l-229 -281q-3 -4 -1 -7l246 -383q2 -6 2 -7q0 -7 -10 -7h-105q-9 0 -14 8l-198 308q-4 6 -7 1l-74 -86q-2 -4 -2 -7v-212
q0 -5 -3.5 -8.5t-8.5 -3.5h-92q-5 0 -8.5 3.5z" />
    <glyph glyph-name="L" unicode="L" horiz-adv-x="571" 
d="M76.5 3.5q-3.5 3.5 -3.5 8.5v676q0 5 3.5 8.5t8.5 3.5h92q5 0 8.5 -3.5t3.5 -8.5v-583q0 -5 5 -5h335q5 0 8.5 -3.5t3.5 -8.5v-76q0 -5 -3.5 -8.5t-8.5 -3.5h-444q-5 0 -8.5 3.5z" />
    <glyph glyph-name="M" unicode="M" horiz-adv-x="715" 
d="M538 700h92q5 0 8.5 -3.5t3.5 -8.5v-676q0 -5 -3.5 -8.5t-8.5 -3.5h-92q-5 0 -8.5 3.5t-3.5 8.5v477q0 3 -2.5 4t-3.5 -2l-125 -192q-5 -8 -14 -8h-46q-9 0 -14 8l-126 191q-1 3 -3.5 2t-2.5 -4v-476q0 -5 -3.5 -8.5t-8.5 -3.5h-92q-5 0 -8.5 3.5t-3.5 8.5v676
q0 5 3.5 8.5t8.5 3.5h92q9 0 14 -8l163 -247q2 -2 4 -2t3 2l163 247q5 8 14 8z" />
    <glyph glyph-name="N" unicode="N" horiz-adv-x="669" 
d="M483.5 696.5q3.5 3.5 8.5 3.5h92q5 0 8.5 -3.5t3.5 -8.5v-676q0 -5 -3.5 -8.5t-8.5 -3.5h-89q-10 0 -14 8l-288 472q-2 3 -4 2.5t-2 -4.5l2 -466q0 -5 -3.5 -8.5t-8.5 -3.5h-92q-5 0 -8.5 3.5t-3.5 8.5v676q0 5 3.5 8.5t8.5 3.5h89q10 0 14 -8l287 -472q2 -3 4 -2.5
t2 4.5l-1 466q0 5 3.5 8.5z" />
    <glyph glyph-name="O" unicode="O" horiz-adv-x="621" 
d="M177 20.5q-58 30.5 -89.5 86.5t-31.5 129v228q0 72 32 127.5t89.5 86t132.5 30.5q76 0 133.5 -30.5t89.5 -86t32 -127.5v-228q0 -73 -32 -129t-89.5 -86.5t-133.5 -30.5q-75 0 -133 30.5zM411 129q38 39 38 103v233q0 65 -38 104t-101 39q-62 0 -100 -39t-38 -104v-233
q0 -64 38 -103t100 -39q63 0 101 39z" />
    <glyph glyph-name="P" unicode="P" horiz-adv-x="595" 
d="M465 675q48 -26 74.5 -73.5t26.5 -109.5q0 -61 -27 -108t-76.5 -72.5t-114.5 -25.5h-160q-5 0 -5 -5v-269q0 -5 -3.5 -8.5t-8.5 -3.5h-92q-5 0 -8.5 3.5t-3.5 8.5v677q0 5 3.5 8.5t8.5 3.5h275q63 0 111 -26zM419 410q31 30 31 79q0 50 -31 81t-82 31h-149q-5 0 -5 -5
v-211q0 -5 5 -5h149q51 0 82 30z" />
    <glyph glyph-name="Q" unicode="Q" horiz-adv-x="587" 
d="M422 678q56 -30 87 -85t31 -127v-240q0 -88 -49.5 -149.5t-134.5 -78.5q-4 -1 -4 -6v-84q0 -5 -3.5 -8.5t-8.5 -3.5h-92q-5 0 -8.5 3.5t-3.5 8.5v84q0 4 -5 6q-84 17 -134 78t-50 150v240q0 72 31 127t86.5 85t128.5 30t129 -30zM424 472q0 61 -36 98.5t-95 37.5
q-58 0 -94 -37.5t-36 -98.5v-244q0 -61 36 -98.5t94 -37.5q59 0 95 37.5t36 98.5v244z" />
    <glyph glyph-name="R" unicode="R" horiz-adv-x="613" 
d="M452 9l-132 288q-2 4 -6 4h-120q-5 0 -5 -5v-284q0 -5 -3.5 -8.5t-8.5 -3.5h-92q-5 0 -8.5 3.5t-3.5 8.5v676q0 5 3.5 8.5t8.5 3.5h275q61 0 108 -25.5t73 -72t26 -106.5q0 -69 -35.5 -117.5t-98.5 -67.5q-2 0 -3 -2t0 -4l141 -291q2 -4 2 -6q0 -8 -11 -8h-96
q-10 0 -14 9zM189 595v-199q0 -5 5 -5h150q48 0 77.5 28.5t29.5 75.5t-29.5 76t-77.5 29h-150q-5 0 -5 -5z" />
    <glyph glyph-name="S" unicode="S" horiz-adv-x="591" 
d="M163 17q-58 25 -89.5 70t-31.5 106v25q0 5 3.5 8.5t8.5 3.5h89q5 0 8.5 -3.5t3.5 -8.5v-19q0 -46 41 -76.5t112 -30.5q61 0 92 26t31 67q0 28 -17 47.5t-48.5 35.5t-94.5 40q-71 26 -115 49t-73.5 62.5t-29.5 98.5q0 88 64 139t171 51q75 0 132.5 -26t89.5 -72.5
t32 -107.5v-17q0 -5 -3.5 -8.5t-8.5 -3.5h-90q-5 0 -8.5 3.5t-3.5 8.5v11q0 47 -38.5 79.5t-106.5 32.5q-55 0 -85.5 -23t-30.5 -65q0 -30 16 -49t48 -34.5t99 -39.5q71 -27 113.5 -49t73 -61.5t30.5 -98.5q0 -90 -66.5 -143t-181.5 -53q-78 0 -136 25z" />
    <glyph glyph-name="T" unicode="T" horiz-adv-x="579" 
d="M541.5 696.5q3.5 -3.5 3.5 -8.5v-77q0 -5 -3.5 -8.5t-8.5 -3.5h-184q-5 0 -5 -5v-582q0 -5 -3.5 -8.5t-8.5 -3.5h-92q-5 0 -8.5 3.5t-3.5 8.5v582q0 5 -5 5h-177q-5 0 -8.5 3.5t-3.5 8.5v77q0 5 3.5 8.5t8.5 3.5h487q5 0 8.5 -3.5z" />
    <glyph glyph-name="U" unicode="U" horiz-adv-x="636" 
d="M187 21q-57 29 -88.5 82.5t-31.5 123.5v461q0 5 3.5 8.5t8.5 3.5h92q5 0 8.5 -3.5t3.5 -8.5v-463q0 -59 37 -96t98 -37t98 37t37 96v463q0 5 3.5 8.5t8.5 3.5h92q5 0 8.5 -3.5t3.5 -8.5v-461q0 -70 -31 -123.5t-88 -82.5t-132 -29q-74 0 -131 29z" />
    <glyph glyph-name="V" unicode="V" horiz-adv-x="610" 
d="M241 10l-210 676l-1 4q0 10 11 10h99q11 0 14 -10l150 -522q1 -3 3 -3t3 3l149 522q3 10 14 10h97q6 0 9 -4t1 -10l-213 -676q-3 -10 -13 -10h-100q-10 0 -13 10z" />
    <glyph glyph-name="W" unicode="W" horiz-adv-x="878" 
d="M208 10l-182 677l-1 4q0 9 11 9h98q11 0 14 -10l114 -456q1 -3 3 -3t3 3l109 456q3 10 13 10h96q11 0 14 -10l116 -457q1 -3 3 -3t3 3l112 457q3 10 14 10h93q14 0 11 -13l-173 -677q-3 -10 -14 -10h-93q-11 0 -14 10l-117 477q-1 3 -3 3.5t-3 -3.5l-112 -477
q-3 -10 -13 -10h-88q-11 0 -14 10z" />
    <glyph glyph-name="X" unicode="X" horiz-adv-x="616" 
d="M34.5 3.5q-2.5 3.5 1.5 10.5l199 333q2 3 0 6l-199 333q-2 6 -2 7q0 7 10 7h100q11 0 15 -8l146 -248q3 -6 6 0l147 248q4 8 14 8h100q7 0 9.5 -3.5t-1.5 -10.5l-199 -333q-1 -3 0 -6l199 -333q2 -6 2 -7q0 -7 -10 -7h-100q-10 0 -14 8l-147 247q-3 6 -6 0l-147 -247
q-4 -8 -14 -8h-100q-7 0 -9.5 3.5z" />
    <glyph glyph-name="Y" unicode="Y" horiz-adv-x="599" 
d="M244.5 4.5q-3.5 3.5 -3.5 8.5v268q0 4 -1 6l-206 399q-2 4 -2 6q0 8 11 8h99q10 0 14 -9l140 -279q3 -4 6 0l141 279q5 9 14 9h100q7 0 9.5 -4t-0.5 -10l-207 -399q-2 -4 -2 -6v-268q0 -5 -3.5 -8.5t-8.5 -3.5h-92q-5 0 -8.5 3.5z" />
    <glyph glyph-name="Z" unicode="Z" horiz-adv-x="554" 
d="M40.5 3.5q-3.5 3.5 -3.5 8.5v85q0 7 5 15l337 482q2 2 1 4t-4 2h-327q-5 0 -8.5 3.5t-3.5 8.5v76q0 5 3.5 8.5t8.5 3.5h450q5 0 8.5 -3.5t3.5 -8.5v-85q0 -7 -5 -15l-337 -482q-2 -2 -1 -4t4 -2h327q5 0 8.5 -3.5t3.5 -8.5v-76q0 -5 -3.5 -8.5t-8.5 -3.5h-450
q-5 0 -8.5 3.5z" />
    <glyph glyph-name="bracketleft" unicode="[" horiz-adv-x="403" 
d="M37.5 -134.5q-3.5 3.5 -3.5 8.5v905q0 5 3.5 8.5t8.5 3.5h220q5 0 8.5 -3.5t3.5 -8.5v-76q0 -5 -3.5 -8.5t-8.5 -3.5h-111q-5 0 -5 -5v-718q0 -5 5 -5h112q5 0 8.5 -3.5t3.5 -8.5v-77q0 -5 -3.5 -8.5t-8.5 -3.5h-221q-5 0 -8.5 3.5z" />
    <glyph glyph-name="backslash" unicode="\" horiz-adv-x="447" 
d="M420 9q0 -9 -11 -9h-91q-10 0 -13 10l-244 676q-1 2 -1 5q0 9 11 9h90q10 0 13 -10l245 -676q1 -2 1 -5z" />
    <glyph glyph-name="bracketright" unicode="]" horiz-adv-x="403" 
d="M365.5 -134.5q-3.5 -3.5 -8.5 -3.5h-220q-5 0 -8.5 3.5t-3.5 8.5v77q0 5 3.5 8.5t8.5 3.5h111q5 0 5 5v718q0 5 -5 5h-111q-5 0 -8.5 3.5t-3.5 8.5v76q0 5 3.5 8.5t8.5 3.5h220q5 0 8.5 -3.5t3.5 -8.5v-905q0 -5 -3.5 -8.5z" />
    <glyph glyph-name="asciicircum" unicode="^" horiz-adv-x="465" 
d="M37 315l141 375q3 10 14 10h79q11 0 14 -10l142 -375q1 -2 1 -5q0 -9 -11 -9h-74q-10 0 -13 10l-95 266q-1 3 -3 3t-3 -3l-94 -266q-3 -10 -13 -10h-75q-15 0 -10 14z" />
    <glyph glyph-name="underscore" unicode="_" horiz-adv-x="509" 
d="M25.5 3.5q-3.5 3.5 -3.5 8.5v65q0 5 3.5 8.5t8.5 3.5h441q5 0 8.5 -3.5t3.5 -8.5v-65q0 -5 -3.5 -8.5t-8.5 -3.5h-441q-5 0 -8.5 3.5z" />
    <glyph glyph-name="grave" unicode="`" horiz-adv-x="219" 
d="M191 583q0 -8 -10 -8h-66q-9 0 -14 8l-69 102q-2 4 -2 7q0 8 10 8h79q11 0 15 -8l55 -103q2 -4 2 -6z" />
    <glyph glyph-name="a" unicode="a" horiz-adv-x="522" 
d="M368 497q48 -22 74 -60.5t26 -87.5v-337q0 -5 -3.5 -8.5t-8.5 -3.5h-92q-5 0 -8.5 3.5t-3.5 8.5v32q0 3 -2 3.5t-4 -1.5q-49 -54 -142 -54q-75 0 -123.5 38t-48.5 113q0 78 54.5 121.5t153.5 43.5h107q5 0 5 5v24q0 39 -23 60.5t-69 21.5q-38 0 -61.5 -13.5t-29.5 -37.5
q-3 -12 -14 -10l-97 12q-5 1 -8.5 3.5t-2.5 6.5q8 61 65.5 100t144.5 39q63 0 111 -22zM317 110q35 26 35 66v47q0 5 -5 5h-84q-53 0 -83.5 -20t-30.5 -57q0 -32 23.5 -49.5t60.5 -17.5q49 0 84 26z" />
    <glyph glyph-name="b" unicode="b" horiz-adv-x="559" 
d="M510 257q0 -71 -19 -125q-22 -66 -71 -103t-120 -37q-70 0 -115 53q-2 3 -4 2t-2 -4v-31q0 -5 -3.5 -8.5t-8.5 -3.5h-92q-5 0 -8.5 3.5t-3.5 8.5v676q0 5 3.5 8.5t8.5 3.5h92q5 0 8.5 -3.5t3.5 -8.5v-217q0 -3 2 -4t4 1q43 51 114 51q74 0 122.5 -37t71.5 -103
q17 -56 17 -122zM391 255q0 78 -30 122q-27 42 -80 42q-49 0 -75 -44q-25 -41 -25 -119q0 -77 23 -116q26 -48 78 -48q28 0 50 12.5t35 35.5q24 42 24 115z" />
    <glyph glyph-name="c" unicode="c" horiz-adv-x="531" 
d="M142 31.5q-56 39.5 -78 106.5q-16 45 -16 120q0 72 16 118q21 66 77.5 104.5t133.5 38.5q78 0 136 -39t77 -98q5 -16 7 -32v-2q0 -10 -11 -12l-90 -13h-2q-9 0 -12 10q0 5 -1 8q-2 8 -4 14q-9 28 -36 46t-64 18q-38 0 -64.5 -19.5t-35.5 -53.5q-10 -32 -10 -89
q0 -55 9 -89q10 -35 36 -55.5t65 -20.5q38 0 65.5 19.5t35.5 52.5q1 2 1 5q1 1 1 3q3 12 14 10l90 -14q5 -1 8.5 -4.5t2.5 -9.5q-3 -16 -5 -23q-19 -64 -77 -101.5t-136 -37.5q-77 0 -133 39.5z" />
    <glyph glyph-name="d" unicode="d" horiz-adv-x="559" 
d="M382.5 696.5q3.5 3.5 8.5 3.5h92q5 0 8.5 -3.5t3.5 -8.5v-676q0 -5 -3.5 -8.5t-8.5 -3.5h-92q-5 0 -8.5 3.5t-3.5 8.5v30q0 3 -2 4t-4 -2q-44 -52 -115 -52t-120 37t-71 103q-18 56 -18 125q0 71 17 122q22 66 71 103t123 37q69 0 113 -50q2 -2 4 -1.5t2 3.5v217
q0 5 3.5 8.5zM378 256q0 78 -25 119q-27 44 -76 44q-51 0 -80 -42q-30 -44 -30 -122q0 -70 24 -115q28 -48 85 -48q51 0 79 48q23 41 23 116z" />
    <glyph glyph-name="e" unicode="e" horiz-adv-x="541" 
d="M497 257l-1 -31q0 -12 -12 -12h-313q-5 0 -5 -5q3 -33 9 -45q24 -72 117 -73q68 0 108 56q4 6 10 6q4 0 7 -3l62 -51q9 -7 3 -16q-31 -44 -82.5 -68t-114.5 -24q-78 0 -132.5 35t-79.5 98q-23 54 -23 150q0 58 12 94q20 70 75.5 110.5t133.5 40.5q197 0 222 -206
q4 -25 4 -56zM209.5 400.5q-24.5 -18.5 -34.5 -51.5q-6 -17 -8 -44q-2 -5 4 -5h203q5 0 5 5q-2 25 -6 38q-9 36 -35.5 56t-66.5 20q-37 0 -61.5 -18.5z" />
    <glyph glyph-name="f" unicode="f" horiz-adv-x="376" 
d="M336.5 508.5q3.5 -3.5 3.5 -8.5v-79q0 -5 -3.5 -8.5t-8.5 -3.5h-99q-5 0 -5 -5v-392q0 -5 -3.5 -8.5t-8.5 -3.5h-92q-5 0 -8.5 3.5t-3.5 8.5v392q0 5 -5 5h-62q-5 0 -8.5 3.5t-3.5 8.5v79q0 5 3.5 8.5t8.5 3.5h62q5 0 5 5v18q0 65 17 100.5t56 50.5t110 14h35
q5 0 8.5 -3.5t3.5 -8.5v-70q0 -5 -3.5 -8.5t-8.5 -3.5h-26q-43 0 -59.5 -17t-16.5 -62v-10q0 -5 5 -5h99q5 0 8.5 -3.5z" />
    <glyph glyph-name="g" unicode="g" horiz-adv-x="549" 
d="M378.5 507.5q3.5 3.5 8.5 3.5h92q5 0 8.5 -3.5t3.5 -8.5v-465q0 -125 -71.5 -178.5t-187.5 -53.5q-31 0 -61 3q-11 1 -11 13l3 82q0 11 14 11q29 -3 52 -3q75 0 110.5 29.5t35.5 99.5v8q0 3 -2 3.5t-4 -1.5q-41 -44 -116 -44q-65 0 -119 33t-75 101q-13 47 -13 121
q0 83 16 127q20 61 69 97.5t115 36.5q79 0 123 -46q2 -3 4 -2t2 4v24q0 5 3.5 8.5zM373.5 202.5q1.5 17.5 1.5 56.5q0 38 -1.5 54.5t-6.5 32.5q-8 33 -32.5 53t-62.5 20q-36 0 -61 -20t-36 -53q-12 -28 -12 -88q0 -62 10 -87q10 -32 36.5 -52.5t63.5 -20.5q39 0 63 20t32 52
q4 15 5.5 32.5z" />
    <glyph glyph-name="h" unicode="h" 
d="M436.5 471q48.5 -48 48.5 -131v-328q0 -5 -3.5 -8.5t-8.5 -3.5h-92q-5 0 -8.5 3.5t-3.5 8.5v304q0 46 -26 74.5t-69 28.5t-69.5 -28t-26.5 -74v-305q0 -5 -3.5 -8.5t-8.5 -3.5h-92q-5 0 -8.5 3.5t-3.5 8.5v676q0 5 3.5 8.5t8.5 3.5h92q5 0 8.5 -3.5t3.5 -8.5v-221
q0 -3 2 -4t3 2q41 54 124 54q81 0 129.5 -48z" />
    <glyph glyph-name="i" unicode="i" horiz-adv-x="255" 
d="M77 601q-20 20 -20 51t20 51t51 20t51 -20t20 -51t-20 -51t-51 -20t-51 20zM71.5 3.5q-3.5 3.5 -3.5 8.5v488q0 5 3.5 8.5t8.5 3.5h92q5 0 8.5 -3.5t3.5 -8.5v-488q0 -5 -3.5 -8.5t-8.5 -3.5h-92q-5 0 -8.5 3.5z" />
    <glyph glyph-name="j" unicode="j" horiz-adv-x="251" 
d="M73 601q-20 20 -20 51t20 51t51 20t51 -20t20 -51t-20 -51t-51 -20t-51 20zM-51 -193v74q0 12 13 11q57 -1 81 20.5t24 70.5l-1 516q0 5 3.5 8.5t8.5 3.5h92q5 0 8.5 -3.5t3.5 -8.5v-515q0 -73 -20.5 -114t-68 -59t-132.5 -16q-12 0 -12 12z" />
    <glyph glyph-name="k" unicode="k" horiz-adv-x="522" 
d="M65.5 3.5q-3.5 3.5 -3.5 8.5v676q0 5 3.5 8.5t8.5 3.5h92q5 0 8.5 -3.5t3.5 -8.5v-361q0 -3 2 -4t4 2l162 179q7 7 15 7h106q10 0 10 -7q0 -3 -3 -8l-127 -152q-3 -3 -1 -7l150 -323q2 -4 2 -6q0 -8 -11 -8h-97q-10 0 -14 9l-109 254q-1 2 -3.5 2.5t-3.5 -1.5l-80 -92
q-2 -4 -2 -7v-153q0 -5 -3.5 -8.5t-8.5 -3.5h-92q-5 0 -8.5 3.5z" />
    <glyph glyph-name="l" unicode="l" horiz-adv-x="239" 
d="M65.5 3.5q-3.5 3.5 -3.5 8.5v676q0 5 3.5 8.5t8.5 3.5h92q5 0 8.5 -3.5t3.5 -8.5v-676q0 -5 -3.5 -8.5t-8.5 -3.5h-92q-5 0 -8.5 3.5z" />
    <glyph glyph-name="m" unicode="m" horiz-adv-x="829" 
d="M729.5 472.5q43.5 -46.5 43.5 -129.5v-331q0 -5 -3.5 -8.5t-8.5 -3.5h-91q-5 0 -8.5 3.5t-3.5 8.5v307q0 46 -24.5 73t-65.5 27t-67 -27t-26 -72v-308q0 -5 -3.5 -8.5t-8.5 -3.5h-91q-5 0 -8.5 3.5t-3.5 8.5v307q0 46 -25 73t-66 27q-38 0 -62.5 -22t-28.5 -60v-325
q0 -5 -3.5 -8.5t-8.5 -3.5h-92q-5 0 -8.5 3.5t-3.5 8.5v487q0 5 3.5 8.5t8.5 3.5h92q5 0 8.5 -3.5t3.5 -8.5v-33q0 -3 2 -4t4 2q22 28 54.5 41.5t72.5 13.5q49 0 86 -20t57 -58q3 -4 7 0q22 40 61 59t87 19q77 0 120.5 -46.5z" />
    <glyph glyph-name="n" unicode="n" 
d="M436.5 471q48.5 -48 48.5 -131v-328q0 -5 -3.5 -8.5t-8.5 -3.5h-92q-5 0 -8.5 3.5t-3.5 8.5v304q0 46 -26 74.5t-69 28.5t-69.5 -28t-26.5 -74v-305q0 -5 -3.5 -8.5t-8.5 -3.5h-92q-5 0 -8.5 3.5t-3.5 8.5v487q0 5 3.5 8.5t8.5 3.5h92q5 0 8.5 -3.5t3.5 -8.5v-32
q0 -3 2 -4t3 2q41 54 124 54q81 0 129.5 -48z" />
    <glyph glyph-name="o" unicode="o" horiz-adv-x="556" 
d="M143.5 32q-56.5 40 -79.5 111q-17 54 -17 114q0 64 16 114q23 70 80 109t137 39q76 0 131.5 -39t78.5 -108q18 -48 18 -114q0 -63 -17 -114q-23 -71 -79 -111.5t-133 -40.5q-79 0 -135.5 40zM342.5 113q26.5 21 38.5 59q10 33 10 84q0 54 -10 84q-11 38 -38 58.5
t-66 20.5q-37 0 -64 -20.5t-39 -58.5q-10 -35 -10 -84t10 -84q11 -38 38.5 -59t66.5 -21q37 0 63.5 21z" />
    <glyph glyph-name="p" unicode="p" horiz-adv-x="563" 
d="M513 254q0 -71 -17 -122q-22 -66 -70.5 -103t-122.5 -37q-71 0 -114 51q-2 2 -4 1t-2 -4v-217q0 -5 -3.5 -8.5t-8.5 -3.5h-92q-5 0 -8.5 3.5t-3.5 8.5v676q0 5 3.5 8.5t8.5 3.5h92q5 0 8.5 -3.5t3.5 -8.5v-30q0 -3 2 -4t4 2q44 52 115 52t120 -37t71 -103q18 -51 18 -125
zM395 256q0 73 -24 115q-28 49 -85 49q-52 0 -78 -48q-23 -39 -23 -116q0 -79 25 -120q26 -44 75 -44q53 0 80 42q30 46 30 122z" />
    <glyph glyph-name="q" unicode="q" horiz-adv-x="563" 
d="M382.5 507.5q3.5 3.5 8.5 3.5h92q5 0 8.5 -3.5t3.5 -8.5v-676q0 -5 -3.5 -8.5t-8.5 -3.5h-92q-5 0 -8.5 3.5t-3.5 8.5v217q0 3 -2 3.5t-4 -1.5q-44 -50 -113 -50q-74 0 -123 37t-71 103q-17 51 -17 122q0 70 18 125q22 66 71 103t120 37t115 -52q2 -3 4 -2t2 4v30
q0 5 3.5 8.5zM378 256q0 75 -23 116q-28 48 -79 48q-57 0 -85 -49q-24 -45 -24 -115q0 -76 30 -122q29 -42 80 -42q49 0 76 44q25 41 25 120z" />
    <glyph glyph-name="r" unicode="r" horiz-adv-x="376" 
d="M356 504q8 -4 6 -15l-17 -90q-1 -12 -14 -7q-15 5 -35 5q-13 0 -20 -1q-42 -2 -70 -29.5t-28 -71.5v-283q0 -5 -3.5 -8.5t-8.5 -3.5h-92q-5 0 -8.5 3.5t-3.5 8.5v487q0 5 3.5 8.5t8.5 3.5h92q5 0 8.5 -3.5t3.5 -8.5v-45q0 -4 1.5 -4.5t3.5 2.5q42 65 117 65q32 0 56 -13z
" />
    <glyph glyph-name="s" unicode="s" horiz-adv-x="493" 
d="M141.5 12.5q-47.5 18.5 -73.5 51t-26 72.5v9q0 5 3.5 8.5t8.5 3.5h88q5 0 8.5 -3.5t3.5 -8.5v-2q0 -25 27.5 -43.5t69.5 -18.5q40 0 65 16.5t25 41.5q0 23 -20.5 34.5t-66.5 24.5l-38 12q-51 15 -86 32t-59 46.5t-24 75.5q0 70 55 111.5t145 41.5q61 0 107 -19.5t71 -54
t25 -78.5q0 -5 -3.5 -8.5t-8.5 -3.5h-85q-5 0 -8.5 3.5t-3.5 8.5q0 26 -25.5 43.5t-69.5 17.5q-39 0 -63.5 -14.5t-24.5 -40.5q0 -24 23.5 -36.5t78.5 -27.5l22 -6q53 -16 89 -32.5t61 -46t25 -76.5q0 -71 -56 -111.5t-149 -40.5q-63 0 -110.5 18.5z" />
    <glyph glyph-name="t" unicode="t" horiz-adv-x="374" 
d="M329.5 420.5q-3.5 -3.5 -8.5 -3.5h-102q-5 0 -5 -5v-241q0 -38 16.5 -55t52.5 -17h30q5 0 8.5 -3.5t3.5 -8.5v-75q0 -11 -12 -13l-52 -1q-79 0 -118 27t-40 102v285q0 5 -5 5h-57q-5 0 -8.5 3.5t-3.5 8.5v70q0 5 3.5 8.5t8.5 3.5h57q5 0 5 5v117q0 5 3.5 8.5t8.5 3.5h87
q5 0 8.5 -3.5t3.5 -8.5v-117q0 -5 5 -5h102q5 0 8.5 -3.5t3.5 -8.5v-70q0 -5 -3.5 -8.5z" />
    <glyph glyph-name="u" unicode="u" horiz-adv-x="541" 
d="M367.5 507.5q3.5 3.5 8.5 3.5h91q5 0 8.5 -3.5t3.5 -8.5v-487q0 -5 -3.5 -8.5t-8.5 -3.5h-91q-5 0 -8.5 3.5t-3.5 8.5v32q0 3 -2 4t-4 -2q-41 -53 -123 -53q-76 0 -127.5 44t-51.5 125v337q0 5 3.5 8.5t8.5 3.5h92q5 0 8.5 -3.5t3.5 -8.5v-304q0 -47 24.5 -75t68.5 -28
q45 0 72 28t27 75v304q0 5 3.5 8.5z" />
    <glyph glyph-name="v" unicode="v" horiz-adv-x="504" 
d="M187 10l-161 488q-1 2 -1 5q0 9 11 9h102q11 0 14 -10l97 -334q1 -3 3 -3t3 3l97 334q3 10 14 10l102 -2q6 0 9 -3.5t1 -10.5l-160 -486q-3 -10 -13 -10h-105q-10 0 -13 10z" />
    <glyph glyph-name="w" unicode="w" horiz-adv-x="761" 
d="M169 10l-143 488l-1 4q0 10 11 10h95q11 0 14 -10l83 -334q1 -3 3 -3t3 3l87 334q3 10 14 10h83q11 0 14 -10l89 -334q1 -3 3 -3t3 3l89 334q3 10 14 10l94 -2q6 0 8.5 -3.5t1.5 -9.5l-144 -487q-3 -10 -13 -10h-96q-11 0 -14 10l-88 305q-1 3 -3 3t-3 -3l-81 -305
q-3 -10 -14 -10h-95q-11 0 -14 10z" />
    <glyph glyph-name="x" unicode="x" horiz-adv-x="516" 
d="M25.5 4.5q-2.5 4.5 1.5 10.5l162 238q2 3 0 6l-162 237q-2 4 -2 7q0 8 10 8h98q9 0 14 -8l104 -154q2 -2 4 -2t3 2l104 154q5 8 14 8h105q7 0 9.5 -4.5t-1.5 -10.5l-162 -237q-1 -3 0 -6l162 -238q2 -4 2 -7q0 -8 -10 -8h-98q-9 0 -14 8l-104 154q-1 2 -3 2t-4 -2
l-104 -154q-5 -8 -14 -8h-105q-7 0 -9.5 4.5z" />
    <glyph glyph-name="y" unicode="y" horiz-adv-x="489" 
d="M47 -195.5q-2 3.5 -2 8.5v72q0 5 3.5 8.5t8.5 3.5h1q41 1 64 8.5t38 28.5t27 63q1 2 0 6l-165 495q-1 2 -1 5q0 9 10 9h98q11 0 14 -10l100 -352q1 -3 3 -3t3 3l100 352q3 10 14 10h95q6 0 8.5 -3.5t0.5 -10.5l-176 -526q-25 -71 -49 -106t-65.5 -50t-117.5 -15h-7
q-3 0 -5 3.5z" />
    <glyph glyph-name="z" unicode="z" horiz-adv-x="455" 
d="M31.5 3.5q-3.5 3.5 -3.5 8.5v85q0 9 5 14l246 289q5 6 -3 6h-231q-5 0 -8.5 3.5t-3.5 8.5v81q0 5 3.5 8.5t8.5 3.5h364q5 0 8.5 -3.5t3.5 -8.5v-85q0 -8 -6 -14l-251 -289q-4 -6 3 -6h245q5 0 8.5 -3.5t3.5 -8.5v-81q0 -5 -3.5 -8.5t-8.5 -3.5h-372q-5 0 -8.5 3.5z" />
    <glyph glyph-name="braceleft" unicode="{" horiz-adv-x="350" 
d="M103 -18v211q0 43 -14 64t-44 26q-11 2 -11 12v69q0 12 12 13q29 4 43 25t14 63v206q0 120 120 120h81q5 0 8.5 -3.5t3.5 -8.5v-76q0 -5 -3.5 -8.5t-8.5 -3.5h-30q-26 0 -40.5 -17.5t-14.5 -49.5v-173q0 -48 -13 -76t-42 -42q-6 -3 0 -6q28 -14 41.5 -43.5t13.5 -76.5
v-177q0 -33 14.5 -50t40.5 -17h30q5 0 8.5 -3.5t3.5 -8.5v-77q0 -5 -3.5 -8.5t-8.5 -3.5h-81q-120 0 -120 120z" />
    <glyph glyph-name="bar" unicode="|" horiz-adv-x="190" 
d="M40.5 -76.5q-3.5 3.5 -3.5 8.5v816q0 5 3.5 8.5t8.5 3.5h92q5 0 8.5 -3.5t3.5 -8.5v-816q0 -5 -3.5 -8.5t-8.5 -3.5h-92q-5 0 -8.5 3.5z" />
    <glyph glyph-name="braceright" unicode="}" horiz-adv-x="350" 
d="M46 -138q-5 0 -8.5 3.5t-3.5 8.5v77q0 5 3.5 8.5t8.5 3.5h30q26 0 40.5 17t14.5 50v177q0 47 13 76.5t41 43.5q6 3 0 6q-28 14 -41 42t-13 76v173q0 32 -14.5 49.5t-40.5 17.5h-30q-5 0 -8.5 3.5t-3.5 8.5v76q0 5 3.5 8.5t8.5 3.5h80q121 0 121 -120v-206q0 -42 14 -63
t43 -25q12 -1 12 -13v-69q0 -10 -11 -12q-30 -5 -44 -26t-14 -64v-211q0 -120 -121 -120h-80z" />
    <glyph glyph-name="asciitilde" unicode="~" horiz-adv-x="522" 
d="M305.5 219.5q-19.5 7.5 -46.5 21.5q-24 14 -42.5 21.5t-39.5 7.5q-42 0 -68 -38q-8 -9 -17 -3l-51 35q-9 6 -5 16q16 40 54.5 65.5t82.5 25.5q25 0 43.5 -6.5t42.5 -19.5q30 -18 47 -25.5t39 -7.5q19 0 33 9.5t27 27.5q7 10 17 4l59 -39q9 -6 5 -16q-18 -39 -54.5 -62.5
t-79.5 -23.5q-27 0 -46.5 7.5z" />
    <glyph glyph-name="uni00A0" unicode="&#xa0;" horiz-adv-x="200" 
 />
    <glyph glyph-name="exclamdown" unicode="&#xa1;" horiz-adv-x="335" 
d="M214 688q20 -20 20 -51t-20 -50.5t-51 -19.5t-50.5 19.5t-19.5 50.5t19.5 51t50.5 20t51 -20zM125.5 470.5q3.5 3.5 8.5 3.5h70q5 0 8.5 -3.5t3.5 -8.5l11 -440q0 -5 -3.5 -8.5t-8.5 -3.5h-92q-5 0 -8.5 3.5t-3.5 8.5l11 440q0 5 3.5 8.5z" />
    <glyph glyph-name="cent" unicode="&#xa2;" horiz-adv-x="531" 
d="M377 259q1 1 1 3q3 12 14 10l90 -14q5 -1 8.5 -4.5t2.5 -9.5q-3 -16 -5 -23q-16 -54 -60 -89t-105 -46q-5 -2 -5 -6l1 -73q0 -5 -3.5 -8.5t-8.5 -3.5h-78q-5 0 -8.5 3.5t-3.5 8.5l2 76q0 5 -4 6q-55 14 -94.5 50t-56.5 89q-16 45 -16 120q0 72 16 118q16 52 55 87t94 49
q4 1 4 6l-2 74q0 5 3.5 8.5t8.5 3.5h78q5 0 8.5 -3.5t3.5 -8.5l-1 -71q0 -4 5 -6q62 -10 106.5 -46.5t60.5 -86.5q5 -16 7 -32v-2q0 -10 -11 -12l-90 -13h-2q-9 0 -12 10q0 5 -1 8q-2 8 -4 14q-9 28 -36 46t-64 18q-38 0 -64.5 -19.5t-35.5 -53.5q-10 -32 -10 -89
q0 -55 9 -89q10 -35 36 -55.5t65 -20.5q38 0 65.5 19.5t35.5 52.5q1 2 1 5z" />
    <glyph glyph-name="sterling" unicode="&#xa3;" horiz-adv-x="610" 
d="M235 106q-2 -2 -1 -4t4 -2h329q5 0 8.5 -3.5t3.5 -8.5v-76q0 -5 -3.5 -8.5t-8.5 -3.5h-451q-5 0 -8.5 3.5t-3.5 8.5v79q0 8 8 14q47 32 47 104v81q0 5 -5 5h-69q-5 0 -8.5 3.5t-3.5 8.5v70q0 5 3.5 8.5t8.5 3.5h69q5 0 5 5v104q0 99 58 154.5t158 55.5q75 0 126 -39
t74 -109q1 -2 1 -5q0 -6 -10 -9l-85 -16h-3q-7 0 -12 9q-13 37 -35.5 53t-55.5 16q-47 0 -73.5 -27t-26.5 -81v-106q0 -5 5 -5h184q5 0 8.5 -3.5t3.5 -8.5v-70q0 -5 -3.5 -8.5t-8.5 -3.5h-184q-5 0 -5 -5v-80q0 -64 -40 -104z" />
    <glyph glyph-name="currency" unicode="&#xa4;" horiz-adv-x="555" 
d="M458 196q-1 -4 1 -7l64 -64q4 -4 4 -9q0 -4 -4 -8l-57 -49q-4 -4 -9 -4q-4 0 -8 4l-61 60q-2 3 -7 1q-47 -29 -107 -29q-56 0 -103 27q-4 2 -7 -1l-58 -58q-4 -4 -8 -4q-3 0 -9 4l-57 49q-4 3 -4 8t4 9l60 60q3 3 1 7q-32 51 -32 111q0 58 30 107q2 5 -1 7l-64 63
q-4 4 -4 9q0 4 4 8l57 50q4 4 9 4q4 0 8 -4l60 -60q3 -2 7 -1q47 29 107 29q62 0 111 -32q4 -2 7 1l64 63q4 4 8 4q5 0 9 -4l57 -50q4 -4 4 -8q0 -5 -4 -9l-69 -68q-2 -2 -1 -7q27 -48 27 -102q0 -55 -29 -107zM194.5 223.5q33.5 -33.5 79.5 -33.5q47 0 80 33t34 80
q-1 46 -34.5 79.5t-79.5 33.5t-79.5 -33t-33.5 -80q0 -46 33.5 -79.5z" />
    <glyph glyph-name="yen" unicode="&#xa5;" horiz-adv-x="687" 
d="M612.5 696q2.5 -4 -0.5 -10l-179 -344q-3 -6 4 -6h97q5 0 8.5 -3.5t3.5 -8.5v-42q0 -5 -3.5 -8.5t-8.5 -3.5h-126q-5 0 -5 -5v-60q0 -5 5 -5h126q5 0 8.5 -3.5t3.5 -8.5v-42q0 -5 -3.5 -8.5t-8.5 -3.5h-126q-5 0 -5 -5v-116q0 -5 -3.5 -8.5t-8.5 -3.5h-91q-5 0 -8.5 3.5
t-3.5 8.5v116q0 5 -5 5h-129q-5 0 -8.5 3.5t-3.5 8.5v42q0 5 3.5 8.5t8.5 3.5h129q5 0 5 5v60q0 5 -5 5h-129q-5 0 -8.5 3.5t-3.5 8.5v42q0 5 3.5 8.5t8.5 3.5h100q7 0 4 6l-178 344q-2 4 -2 6q0 8 11 8h99q10 0 14 -9l141 -279q3 -4 6 0l140 279q5 9 14 9h100q7 0 9.5 -4z
" />
    <glyph glyph-name="brokenbar" unicode="&#xa6;" horiz-adv-x="190" 
d="M40.5 404.5q-3.5 3.5 -3.5 8.5v335q0 5 3.5 8.5t8.5 3.5h92q5 0 8.5 -3.5t3.5 -8.5v-335q0 -5 -3.5 -8.5t-8.5 -3.5h-92q-5 0 -8.5 3.5zM40.5 -76.5q-3.5 3.5 -3.5 8.5v335q0 5 3.5 8.5t8.5 3.5h92q5 0 8.5 -3.5t3.5 -8.5v-335q0 -5 -3.5 -8.5t-8.5 -3.5h-92
q-5 0 -8.5 3.5z" />
    <glyph glyph-name="section" unicode="&#xa7;" horiz-adv-x="479" 
d="M101 -163q-49 45 -51 122l-1 31q0 5 3.5 8.5t8.5 3.5h92q5 0 8.5 -3.5t3.5 -8.5v-13q0 -39 20.5 -62t55.5 -23q33 0 54 22t21 55q0 27 -15.5 44.5t-38 28t-71.5 28.5q-48 17 -77 35t-48 47q-24 38 -24 90q0 55 28 98q26 37 68 52q7 2 1 5q-41 20 -66.5 57t-25.5 86
q0 45 24.5 83.5t68.5 61.5t100 23q54 0 97 -21.5t67.5 -60t24.5 -87.5v-21q0 -5 -3.5 -8.5t-8.5 -3.5h-92q-5 0 -8.5 3.5t-3.5 8.5v9q0 36 -21 58.5t-54 22.5t-54 -22.5t-21 -55.5q0 -37 29 -58.5t85 -40.5q38 -12 68 -26.5t51 -38.5q40 -42 40 -108q0 -54 -27 -97
q-27 -44 -68 -55q-4 -1 -4 -2.5t3 -3.5q92 -47 92 -142q0 -49 -25.5 -87t-70.5 -58.5t-101 -20.5q-85 0 -134 45zM306 199q14 20 14 50q0 33 -16 54q-25 30 -65 30q-21 0 -39.5 -10.5t-28.5 -27.5q-13 -19 -13 -48t13 -48q24 -33 67 -33q48 0 68 33z" />
    <glyph glyph-name="dieresis" unicode="&#xa8;" horiz-adv-x="375" 
d="M232 606q-20 20 -20 51t20 51t51 20t50.5 -20t19.5 -51t-20 -51t-50 -20q-31 0 -51 20zM42 606q-20 20 -20 51t20 51t51 20t50.5 -20t19.5 -51t-20 -51t-50 -20q-31 0 -51 20z" />
    <glyph glyph-name="copyright" unicode="&#xa9;" horiz-adv-x="835" 
d="M232 38.5q-82 46.5 -129 129t-47 184.5q0 101 47 182t129 127.5t185 46.5t186 -46.5t129.5 -127.5t46.5 -182q0 -102 -46.5 -184.5t-129.5 -129t-186 -46.5t-185 46.5zM561.5 107.5q64.5 36.5 100.5 100.5t36 144q0 78 -36.5 141.5t-100.5 99.5t-144 36t-144 -36
t-100 -99.5t-36 -141.5q0 -80 36 -144t100 -100.5t144 -36.5t144.5 36.5zM332.5 203q-32.5 30 -32.5 80v136q0 50 32.5 79.5t86.5 29.5t86 -28t32 -76q0 -4 -3.5 -6.5t-8.5 -2.5l-40 -1q-12 0 -12 9q0 23 -15 37t-39 14q-25 0 -39.5 -14t-14.5 -37v-145q0 -23 14.5 -36.5
t39.5 -13.5q24 0 39 14t15 36q0 4 3.5 7t8.5 3l40 -1q12 0 12 -9q0 -48 -32.5 -76.5t-85.5 -28.5q-54 0 -86.5 30z" />
    <glyph glyph-name="ordfeminine" unicode="&#xaa;" horiz-adv-x="327" 
d="M222 566q5 0 5 5v15q0 30 -18 48t-52 18q-24 0 -41.5 -10t-23.5 -27q-3 -11 -13 -10l-41 4q-12 2 -11 13q6 38 42 62t88 24q61 0 98.5 -31.5t37.5 -80.5v-218q0 -5 -3.5 -8.5t-8.5 -3.5h-42q-5 0 -8.5 3.5t-3.5 8.5v11q0 3 -2 4t-4 -2q-31 -31 -90 -31q-52 0 -83 24.5
t-31 71.5q0 50 37.5 80t101.5 30h66zM202.5 431q24.5 19 24.5 47v32q0 5 -5 5h-58q-38 0 -60 -13.5t-22 -40.5q0 -25 16.5 -37t44.5 -12q35 0 59.5 19zM20.5 305.5q3.5 3.5 8.5 3.5h260q5 0 8.5 -3.5t3.5 -8.5v-47q0 -5 -3.5 -8.5t-8.5 -3.5h-260q-5 0 -8.5 3.5t-3.5 8.5v47
q0 5 3.5 8.5z" />
    <glyph glyph-name="guillemotleft" unicode="&#xab;" horiz-adv-x="520" 
d="M278 115q0 -8 -10 -8h-85q-9 0 -14 8l-105 158q-3 5 -3 8q0 5 3 8l105 158q5 8 14 8h85q7 0 9.5 -4.5t-1.5 -10.5l-107 -156q-1 -3 0 -6l107 -156q2 -4 2 -7zM445 115q0 -8 -10 -8h-85q-9 0 -14 8l-105 158q-3 5 -3 8q0 5 3 8l105 158q5 8 14 8h85q7 0 9.5 -4.5
t-1.5 -10.5l-106 -156q-1 -3 0 -6l106 -156q2 -4 2 -7z" />
    <glyph glyph-name="logicalnot" unicode="&#xac;" horiz-adv-x="491" 
d="M35.5 351.5q3.5 3.5 8.5 3.5h402q5 0 8.5 -3.5t3.5 -8.5v-191q0 -5 -3.5 -8.5t-8.5 -3.5h-76q-5 0 -8.5 3.5t-3.5 8.5v98q0 5 -5 5h-309q-5 0 -8.5 3.5t-3.5 8.5v76q0 5 3.5 8.5z" />
    <glyph glyph-name="uni00AD" unicode="&#xad;" horiz-adv-x="404" 
d="M35.5 254.5q-3.5 3.5 -3.5 8.5v76q0 5 3.5 8.5t8.5 3.5h315q5 0 8.5 -3.5t3.5 -8.5v-76q0 -5 -3.5 -8.5t-8.5 -3.5h-315q-5 0 -8.5 3.5z" />
    <glyph glyph-name="registered" unicode="&#xae;" horiz-adv-x="447" 
d="M325.5 685q46.5 -26 73 -70.5t26.5 -99.5q0 -57 -26.5 -103t-73 -72.5t-102.5 -26.5t-102 26.5t-72.5 72.5t-26.5 103q0 55 26.5 99.5t72.5 70.5t102 26t102.5 -26zM299.5 383.5q34.5 19.5 54 54t19.5 77.5q0 40 -20 73.5t-54 53t-76 19.5q-41 0 -75.5 -19.5t-54 -53
t-19.5 -73.5q0 -43 19.5 -77.5t53.5 -54t76 -19.5t76.5 19.5zM267 501q-4 -1 -2 -6l22 -59q1 -2 1 -5q0 -9 -11 -9h-19q-10 0 -13 10l-21 58q-2 4 -5 4h-6q-5 0 -5 -5v-55q0 -5 -3.5 -8.5t-8.5 -3.5h-17q-5 0 -8.5 3.5t-3.5 8.5v159q0 5 3.5 8.5t8.5 3.5h56q25 0 41 -16.5
t16 -40.5q0 -31 -25 -47zM208 565v-35q0 -5 5 -5h16q10 0 16 6.5t6 15.5q0 10 -6 16.5t-16 6.5h-16q-5 0 -5 -5z" />
    <glyph glyph-name="macron" unicode="&#xaf;" horiz-adv-x="285" 
d="M3.5 586.5q-3.5 3.5 -3.5 8.5v56q0 5 3.5 8.5t8.5 3.5h261q5 0 8.5 -3.5t3.5 -8.5v-56q0 -5 -3.5 -8.5t-8.5 -3.5h-261q-5 0 -8.5 3.5z" />
    <glyph glyph-name="degree" unicode="&#xb0;" horiz-adv-x="378" 
d="M105 498.5q-38 22.5 -60.5 60.5t-22.5 84q0 45 22.5 83t60.5 60t84 22t84 -22t60 -60t22 -83q0 -46 -22 -84t-60 -60.5t-84 -22.5t-84 22.5zM252.5 579q25.5 26 25.5 64t-25.5 64t-63.5 26t-64 -26t-26 -64t26 -64t64 -26t63.5 26z" />
    <glyph glyph-name="plusminus" unicode="&#xb1;" horiz-adv-x="491" 
d="M454.5 426.5q3.5 -3.5 3.5 -8.5v-76q0 -5 -3.5 -8.5t-8.5 -3.5h-146q-5 0 -5 -5v-144q0 -5 -3.5 -8.5t-8.5 -3.5h-75q-5 0 -8.5 3.5t-3.5 8.5v144q0 5 -5 5h-147q-5 0 -8.5 3.5t-3.5 8.5v76q0 5 3.5 8.5t8.5 3.5h147q5 0 5 5v148q0 5 3.5 8.5t8.5 3.5h75q5 0 8.5 -3.5
t3.5 -8.5v-148q0 -5 5 -5h146q5 0 8.5 -3.5zM35.5 3.5q-3.5 3.5 -3.5 8.5v76q0 5 3.5 8.5t8.5 3.5h402q5 0 8.5 -3.5t3.5 -8.5v-76q0 -5 -3.5 -8.5t-8.5 -3.5h-402q-5 0 -8.5 3.5z" />
    <glyph glyph-name="uni00B2" unicode="&#xb2;" horiz-adv-x="337" 
d="M36.5 428.5q-3.5 3.5 -3.5 8.5v44q0 9 6 15q71 74 130 142q56 63 56 94q0 23 -16.5 37.5t-42.5 14.5t-42.5 -15t-15.5 -39v-10q0 -5 -3.5 -8.5t-8.5 -3.5h-53q-5 0 -8.5 3.5t-3.5 8.5v22q2 49 40 78.5t95 29.5q61 0 98 -33.5t37 -83.5q0 -25 -12.5 -52t-37.5 -59
q-43 -54 -111 -125q-2 -2 -1 -4t4 -2h156q5 0 8.5 -3.5t3.5 -8.5v-42q0 -5 -3.5 -8.5t-8.5 -3.5h-254q-5 0 -8.5 3.5z" />
    <glyph glyph-name="uni00B3" unicode="&#xb3;" horiz-adv-x="323" 
d="M296 559q0 -37 -13 -68q-15 -34 -47 -53t-75 -19q-45 0 -78.5 22.5t-47.5 61.5q-7 21 -9 44q0 12 12 12h53q12 0 13 -12q0 -13 5 -25q5 -17 19 -27t33 -10q33 0 48 27q11 20 11 49q0 31 -12 52q-13 27 -47 27q-11 0 -23 -6q-2 -1 -6 -1q-6 0 -11 5l-26 31q-3 3 -3 7
q0 5 5 10l92 86q2 2 1.5 4t-3.5 2h-141q-5 0 -8.5 3.5t-3.5 8.5v42q0 5 3.5 8.5t8.5 3.5h234q5 0 8.5 -3.5t3.5 -8.5v-45q0 -9 -6 -15l-81 -80q-4 -4 4 -6q49 -8 74 -57q13 -29 13 -70z" />
    <glyph glyph-name="acute" unicode="&#xb4;" horiz-adv-x="219" 
d="M29 579q-2 4 1 10l55 103q4 8 15 8h79q7 0 9.5 -4.5t-1.5 -10.5l-69 -102q-5 -8 -14 -8h-66q-7 0 -9 4z" />
    <glyph glyph-name="uni00B5" unicode="&#xb5;" horiz-adv-x="549" 
d="M372.5 507.5q3.5 3.5 8.5 3.5h92q5 0 8.5 -3.5t3.5 -8.5v-487q0 -5 -3.5 -8.5t-8.5 -3.5h-92q-5 0 -8.5 3.5t-3.5 8.5v32q0 3 -2 4t-4 -2q-41 -53 -122 -53q-32 0 -57 7q-6 2 -6 -4v-184q0 -5 -3.5 -8.5t-8.5 -3.5h-92q-5 0 -8.5 3.5t-3.5 8.5v687q0 5 3.5 8.5t8.5 3.5
h92q5 0 8.5 -3.5t3.5 -8.5v-322q5 -40 29 -62.5t64 -22.5t66.5 23.5t31.5 62.5v321q0 5 3.5 8.5z" />
    <glyph glyph-name="paragraph" unicode="&#xb6;" horiz-adv-x="608" 
d="M528 700q5 0 8.5 -3.5t3.5 -8.5v-876q0 -5 -3.5 -8.5t-8.5 -3.5h-62q-5 0 -8.5 3.5t-3.5 8.5v800q0 5 -5 5h-107q-5 0 -5 -5v-800q0 -5 -3.5 -8.5t-8.5 -3.5h-63q-5 0 -8.5 3.5t-3.5 8.5v433q0 5 -5 5q-63 5 -112 35t-76.5 79t-27.5 111q0 64 29.5 115.5t83 80.5
t124.5 29h262z" />
    <glyph glyph-name="periodcentered" unicode="&#xb7;" horiz-adv-x="226" 
d="M63 235q-20 20 -20 51t20 51t51 20t50.5 -20t19.5 -51t-20 -51t-50 -20q-31 0 -51 20z" />
    <glyph glyph-name="cedilla" unicode="&#xb8;" horiz-adv-x="159" 
d="M2 -167l5 38q1 12 15 9q10 -3 20 -3q17 0 28 9t11 27q0 34 -48 72q-5 4 -5 9q0 6 10 6h49q9 0 15 -5q57 -47 57 -99q0 -12 -3 -24q-9 -33 -34.5 -47.5t-58.5 -14.5q-29 0 -53 8q-9 4 -8 15z" />
    <glyph glyph-name="uni00B9" unicode="&#xb9;" horiz-adv-x="190" 
d="M85 845h57q5 0 8.5 -3.5t3.5 -8.5v-396q0 -5 -3.5 -8.5t-8.5 -3.5h-53q-5 0 -8.5 3.5t-3.5 8.5v335q0 4 -5 4l-36 -4h-2q-11 0 -11 11v33q0 10 10 13l37 13q8 3 15 3z" />
    <glyph glyph-name="ordmasculine" unicode="&#xba;" horiz-adv-x="358" 
d="M97 390q-35 25 -52 70q-13 30 -13 77q0 48 12 78q16 44 51.5 68.5t84.5 24.5q46 0 80 -24t51 -68q12 -33 12 -78q0 -43 -12 -78q-16 -45 -51 -70t-81 -25q-47 0 -82 25zM216.5 442q16.5 13 23.5 36q8 27 8 59q0 37 -7 58q-8 23 -24.5 36t-38.5 13t-38.5 -13t-24.5 -36
q-8 -24 -8 -58q0 -29 8 -59q7 -23 24 -36t40 -13q21 0 37.5 13zM30.5 240.5q-3.5 3.5 -3.5 8.5v50q0 5 3.5 8.5t8.5 3.5h282q5 0 8.5 -3.5t3.5 -8.5v-50q0 -5 -3.5 -8.5t-8.5 -3.5h-282q-5 0 -8.5 3.5z" />
    <glyph glyph-name="guillemotright" unicode="&#xbb;" horiz-adv-x="520" 
d="M81.5 111.5q-2.5 4.5 1.5 10.5l106 156q2 3 0 6l-106 156q-2 4 -2 7q0 8 10 8h84q9 0 14 -8l105 -158q3 -3 3 -8q0 -3 -3 -8l-105 -158q-5 -8 -14 -8h-84q-7 0 -9.5 4.5zM248.5 111.5q-2.5 4.5 1.5 10.5l106 156q2 3 0 6l-106 156q-2 4 -2 7q0 8 10 8h84q9 0 14 -8
l105 -158q3 -3 3 -8q0 -3 -3 -8l-105 -158q-5 -8 -14 -8h-84q-7 0 -9.5 4.5z" />
    <glyph glyph-name="onequarter" unicode="&#xbc;" horiz-adv-x="819" 
d="M85 700h57q5 0 8.5 -3.5t3.5 -8.5v-396q0 -5 -3.5 -8.5t-8.5 -3.5h-53q-5 0 -8.5 3.5t-3.5 8.5v335q0 4 -5 4l-36 -4h-2q-11 0 -11 11v33q0 10 10 13l37 13q8 3 15 3zM105.5 3.5q-2.5 3.5 1.5 10.5l405 678q4 8 14 8h59q7 0 9.5 -3.5t-1.5 -10.5l-404 -678q-4 -8 -14 -8
h-60q-7 0 -9.5 3.5zM778.5 173.5q3.5 -3.5 3.5 -8.5v-45q0 -5 -3.5 -8.5t-8.5 -3.5h-18q-5 0 -5 -5v-91q0 -5 -3.5 -8.5t-8.5 -3.5h-52q-5 0 -8.5 3.5t-3.5 8.5v91q0 5 -5 5h-177q-5 0 -8.5 3.5t-3.5 8.5v36q0 6 3 15l108 240q4 9 14 9h55q7 0 9.5 -3.5t-0.5 -10.5l-99 -223
q-1 -2 0 -4t3 -2h96q5 0 5 5v72q0 5 3.5 8.5t8.5 3.5h52q5 0 8.5 -3.5t3.5 -8.5v-72q0 -5 5 -5h18q5 0 8.5 -3.5z" />
    <glyph glyph-name="onehalf" unicode="&#xbd;" horiz-adv-x="800" 
d="M85 700h57q5 0 8.5 -3.5t3.5 -8.5v-396q0 -5 -3.5 -8.5t-8.5 -3.5h-53q-5 0 -8.5 3.5t-3.5 8.5v335q0 4 -5 4l-36 -4h-2q-11 0 -11 11v33q0 10 10 13l37 13q8 3 15 3zM105.5 3.5q-2.5 3.5 1.5 10.5l405 678q4 8 14 8h59q7 0 9.5 -3.5t-1.5 -10.5l-404 -678q-4 -8 -14 -8
h-60q-7 0 -9.5 3.5zM491.5 3.5q-3.5 3.5 -3.5 8.5v44q0 9 6 15q71 74 130 142q56 63 56 94q0 23 -16.5 37.5t-42.5 14.5t-42.5 -15t-15.5 -39v-10q0 -5 -3.5 -8.5t-8.5 -3.5h-53q-5 0 -8.5 3.5t-3.5 8.5v22q2 49 40 78.5t95 29.5q61 0 98 -33.5t37 -83.5q0 -25 -12.5 -52
t-37.5 -59q-43 -54 -111 -125q-2 -2 -1 -4t4 -2h156q5 0 8.5 -3.5t3.5 -8.5v-42q0 -5 -3.5 -8.5t-8.5 -3.5h-254q-5 0 -8.5 3.5z" />
    <glyph glyph-name="threequarters" unicode="&#xbe;" horiz-adv-x="911" 
d="M296 419q0 -37 -13 -68q-15 -34 -47 -53t-75 -19q-45 0 -78.5 22.5t-47.5 61.5q-7 21 -9 44q0 12 12 12h53q12 0 13 -12q0 -13 5 -25q5 -17 19 -27t33 -10q33 0 48 27q11 20 11 49q0 31 -12 52q-13 27 -47 27q-11 0 -23 -6q-2 -1 -6 -1q-6 0 -11 5l-26 31q-3 3 -3 7
q0 5 5 10l92 86q2 2 1.5 4t-3.5 2h-141q-5 0 -8.5 3.5t-3.5 8.5v42q0 5 3.5 8.5t8.5 3.5h234q5 0 8.5 -3.5t3.5 -8.5v-45q0 -9 -6 -15l-81 -80q-4 -4 4 -6q49 -8 74 -57q13 -29 13 -70zM199.5 3.5q-2.5 3.5 1.5 10.5l405 678q4 8 14 8h59q7 0 9.5 -3.5t-1.5 -10.5l-404 -678
q-4 -8 -14 -8h-60q-7 0 -9.5 3.5zM873.5 173.5q3.5 -3.5 3.5 -8.5v-45q0 -5 -3.5 -8.5t-8.5 -3.5h-18q-5 0 -5 -5v-91q0 -5 -3.5 -8.5t-8.5 -3.5h-52q-5 0 -8.5 3.5t-3.5 8.5v91q0 5 -5 5h-177q-5 0 -8.5 3.5t-3.5 8.5v36q0 6 3 15l108 240q4 9 14 9h55q7 0 9.5 -3.5
t-0.5 -10.5l-99 -223q-1 -2 0 -4t3 -2h96q5 0 5 5v72q0 5 3.5 8.5t8.5 3.5h52q5 0 8.5 -3.5t3.5 -8.5v-72q0 -5 5 -5h18q5 0 8.5 -3.5z" />
    <glyph glyph-name="questiondown" unicode="&#xbf;" horiz-adv-x="500" 
d="M321.5 481q19.5 -20 19.5 -51t-19.5 -50.5t-50.5 -19.5t-51 19.5t-20 50.5t20 51t51 20t50.5 -20zM322.5 282.5q3.5 -3.5 3.5 -8.5v-41q0 -33 -13 -58.5t-31.5 -42t-49.5 -39.5q-41 -29 -61 -52.5t-20 -58.5q0 -39 27 -62.5t71 -23.5q46 0 74 25t28 64v21q0 11 12 11
l92 -4q5 0 8.5 -4t3.5 -9v-15q0 -57 -28 -101.5t-78 -69t-115 -24.5q-63 0 -111 23.5t-74.5 66t-26.5 98.5q0 45 15 76.5t36 51.5t55 45q35 25 52 43.5t17 45.5v34q0 5 3.5 8.5t8.5 3.5h93q5 0 8.5 -3.5z" />
    <glyph glyph-name="Agrave" unicode="&#xc0;" horiz-adv-x="648" 
d="M494 10l-33 107q-2 4 -5 4h-264q-3 0 -5 -4l-33 -107q-3 -10 -13 -10h-100q-6 0 -9 3.5t-1 10.5l217 676q3 10 13 10h125q10 0 13 -10l218 -676q1 -2 1 -5q0 -9 -11 -9h-100q-10 0 -13 10zM222 212h203q6 0 4 6l-103 335q-1 4 -3 4t-3 -4l-102 -335q-1 -6 4 -6zM366 772
q0 -8 -10 -8h-66q-9 0 -14 8l-69 102q-2 4 -2 7q0 8 10 8h79q11 0 15 -8l55 -103q2 -4 2 -6z" />
    <glyph glyph-name="Aacute" unicode="&#xc1;" horiz-adv-x="648" 
d="M494 10l-33 107q-2 4 -5 4h-264q-3 0 -5 -4l-33 -107q-3 -10 -13 -10h-100q-6 0 -9 3.5t-1 10.5l217 676q3 10 13 10h125q10 0 13 -10l218 -676q1 -2 1 -5q0 -9 -11 -9h-100q-10 0 -13 10zM222 212h203q6 0 4 6l-103 335q-1 4 -3 4t-3 -4l-102 -335q-1 -6 4 -6zM266 768
q-2 4 1 10l55 103q4 8 15 8h79q7 0 9.5 -4.5t-1.5 -10.5l-69 -102q-5 -8 -14 -8h-66q-7 0 -9 4z" />
    <glyph glyph-name="Acircumflex" unicode="&#xc2;" horiz-adv-x="648" 
d="M494 10l-33 107q-2 4 -5 4h-264q-3 0 -5 -4l-33 -107q-3 -10 -13 -10h-100q-6 0 -9 3.5t-1 10.5l217 676q3 10 13 10h125q10 0 13 -10l218 -676q1 -2 1 -5q0 -9 -11 -9h-100q-10 0 -13 10zM222 212h203q6 0 4 6l-103 335q-1 4 -3 4t-3 -4l-102 -335q-1 -6 4 -6z
M177 766.5q-2 4.5 2 10.5l76 105q5 7 14 7h105q9 0 14 -7l76 -105q3 -4 3 -8q0 -7 -10 -7h-70q-9 0 -14 8l-47 67q-2 2 -4 2t-3 -2l-47 -67q-5 -8 -14 -8h-71q-8 0 -10 4.5z" />
    <glyph glyph-name="Atilde" unicode="&#xc3;" horiz-adv-x="648" 
d="M494 10l-33 107q-2 4 -5 4h-264q-3 0 -5 -4l-33 -107q-3 -10 -13 -10h-100q-6 0 -9 3.5t-1 10.5l217 676q3 10 13 10h125q10 0 13 -10l218 -676q1 -2 1 -5q0 -9 -11 -9h-100q-10 0 -13 10zM222 212h203q6 0 4 6l-103 335q-1 4 -3 4t-3 -4l-102 -335q-1 -6 4 -6z
M353 777.5q-13 4.5 -33 14.5q-3 2 -14.5 7.5t-19.5 8t-16 2.5q-17 0 -29.5 -5.5t-23.5 -17.5q-5 -5 -10 -5q-4 0 -7 4l-32 34q-8 8 -2 16q16 27 41.5 42t56.5 15q20 0 34 -5.5t37 -17.5q19 -10 29 -14t21 -4q30 0 50 25q5 5 9 5q5 0 8 -4l29 -34q6 -7 3 -15
q-13 -26 -39.5 -41t-59.5 -15q-19 0 -32 4.5z" />
    <glyph glyph-name="Adieresis" unicode="&#xc4;" horiz-adv-x="648" 
d="M494 10l-33 107q-2 4 -5 4h-264q-3 0 -5 -4l-33 -107q-3 -10 -13 -10h-100q-6 0 -9 3.5t-1 10.5l217 676q3 10 13 10h125q10 0 13 -10l218 -676q1 -2 1 -5q0 -9 -11 -9h-100q-10 0 -13 10zM222 212h203q6 0 4 6l-103 335q-1 4 -3 4t-3 -4l-102 -335q-1 -6 4 -6zM367 795
q-20 20 -20 51t20 51t51 20t50.5 -20t19.5 -51t-20 -51t-50 -20q-31 0 -51 20zM177 795q-20 20 -20 51t20 51t51 20t50.5 -20t19.5 -51t-20 -51t-50 -20q-31 0 -51 20z" />
    <glyph glyph-name="Aring" unicode="&#xc5;" horiz-adv-x="648" 
d="M494 10l-33 107q-2 4 -5 4h-264q-3 0 -5 -4l-33 -107q-3 -10 -13 -10h-100q-6 0 -9 3.5t-1 10.5l217 676q3 10 13 10h125q10 0 13 -10l218 -676q1 -2 1 -5q0 -9 -11 -9h-100q-10 0 -13 10zM222 212h203q6 0 4 6l-103 335q-1 4 -3 4t-3 -4l-102 -335q-1 -6 4 -6z
M236.5 791.5q-34.5 34.5 -34.5 84.5t34.5 84t85.5 34q50 0 84.5 -34t34.5 -84t-34.5 -84.5t-84.5 -34.5q-51 0 -85.5 34.5zM361.5 836q16.5 16 16.5 40t-16.5 40t-39.5 16t-39.5 -16t-16.5 -40q0 -23 16.5 -39.5t39.5 -16.5t39.5 16z" />
    <glyph glyph-name="AE" unicode="&#xc6;" horiz-adv-x="946" 
d="M897.5 603.5q-3.5 -3.5 -8.5 -3.5h-325q-5 0 -5 -5v-187q0 -5 5 -5h213q5 0 8.5 -3.5t3.5 -8.5v-76q0 -5 -3.5 -8.5t-8.5 -3.5h-213q-5 0 -5 -5v-193q0 -5 5 -5h325q5 0 8.5 -3.5t3.5 -8.5v-76q0 -5 -3.5 -8.5t-8.5 -3.5h-434q-5 0 -8.5 3.5t-3.5 8.5v104q0 5 -5 5h-218
q-5 0 -6 -4l-55 -108q-4 -9 -14 -9h-102q-7 0 -9.5 3.5t0.5 10.5l348 677q5 9 14 9h493q5 0 8.5 -3.5t3.5 -8.5v-76q0 -5 -3.5 -8.5zM265 213.5q1 -1.5 4 -1.5h169q5 0 5 5v340q0 4 -2.5 4.5t-3.5 -3.5l-172 -340q-1 -3 0 -4.5z" />
    <glyph glyph-name="Ccedilla" unicode="&#xc7;" horiz-adv-x="608" 
d="M553.5 473.5q-3.5 -2.5 -8.5 -2.5l-92 -5q-12 0 -12 11q0 59 -36.5 95t-97.5 36t-98 -36t-37 -95v-255q0 -58 37 -94t98 -36t97.5 35.5t36.5 94.5q0 11 12 11l92 -4q5 0 8.5 -3t3.5 -7q0 -96 -61.5 -157t-164.5 -69q-3 -1 -3.5 -3t1.5 -4q45 -41 45 -87q0 -13 -3 -23
q-9 -33 -34.5 -47.5t-58.5 -14.5q-23 0 -53 8q-9 4 -8 15l5 39q1 13 15 8q11 -3 19 -3q17 0 28 9.5t11 28.5t-15.5 39.5t-41.5 39.5q-2 2 -3.5 2.5t-2.5 0.5q-82 20 -129 80t-47 146v247q0 70 31 123t88 82t132 29q74 0 131 -28t88 -79t31 -118v-5q0 -2 -3.5 -4.5z" />
    <glyph glyph-name="Egrave" unicode="&#xc8;" horiz-adv-x="592" 
d="M543.5 603.5q-3.5 -3.5 -8.5 -3.5h-341q-5 0 -5 -5v-187q0 -5 5 -5h229q5 0 8.5 -3.5t3.5 -8.5v-76q0 -5 -3.5 -8.5t-8.5 -3.5h-229q-5 0 -5 -5v-193q0 -5 5 -5h341q5 0 8.5 -3.5t3.5 -8.5v-76q0 -5 -3.5 -8.5t-8.5 -3.5h-450q-5 0 -8.5 3.5t-3.5 8.5v676q0 5 3.5 8.5
t8.5 3.5h450q5 0 8.5 -3.5t3.5 -8.5v-76q0 -5 -3.5 -8.5zM350 772q0 -8 -10 -8h-66q-9 0 -14 8l-69 102q-2 4 -2 7q0 8 10 8h79q11 0 15 -8l55 -103q2 -4 2 -6z" />
    <glyph glyph-name="Eacute" unicode="&#xc9;" horiz-adv-x="592" 
d="M543.5 603.5q-3.5 -3.5 -8.5 -3.5h-341q-5 0 -5 -5v-187q0 -5 5 -5h229q5 0 8.5 -3.5t3.5 -8.5v-76q0 -5 -3.5 -8.5t-8.5 -3.5h-229q-5 0 -5 -5v-193q0 -5 5 -5h341q5 0 8.5 -3.5t3.5 -8.5v-76q0 -5 -3.5 -8.5t-8.5 -3.5h-450q-5 0 -8.5 3.5t-3.5 8.5v676q0 5 3.5 8.5
t8.5 3.5h450q5 0 8.5 -3.5t3.5 -8.5v-76q0 -5 -3.5 -8.5zM251 768q-2 4 1 10l55 103q4 8 15 8h79q7 0 9.5 -4.5t-1.5 -10.5l-69 -102q-5 -8 -14 -8h-66q-7 0 -9 4z" />
    <glyph glyph-name="Ecircumflex" unicode="&#xca;" horiz-adv-x="592" 
d="M543.5 603.5q-3.5 -3.5 -8.5 -3.5h-341q-5 0 -5 -5v-187q0 -5 5 -5h229q5 0 8.5 -3.5t3.5 -8.5v-76q0 -5 -3.5 -8.5t-8.5 -3.5h-229q-5 0 -5 -5v-193q0 -5 5 -5h341q5 0 8.5 -3.5t3.5 -8.5v-76q0 -5 -3.5 -8.5t-8.5 -3.5h-450q-5 0 -8.5 3.5t-3.5 8.5v676q0 5 3.5 8.5
t8.5 3.5h450q5 0 8.5 -3.5t3.5 -8.5v-76q0 -5 -3.5 -8.5zM161 766.5q-2 4.5 2 10.5l76 105q5 7 14 7h105q9 0 14 -7l76 -105q3 -4 3 -8q0 -7 -10 -7h-70q-9 0 -14 8l-47 67q-2 2 -4 2t-3 -2l-47 -67q-5 -8 -14 -8h-71q-8 0 -10 4.5z" />
    <glyph glyph-name="Edieresis" unicode="&#xcb;" horiz-adv-x="592" 
d="M543.5 603.5q-3.5 -3.5 -8.5 -3.5h-341q-5 0 -5 -5v-187q0 -5 5 -5h229q5 0 8.5 -3.5t3.5 -8.5v-76q0 -5 -3.5 -8.5t-8.5 -3.5h-229q-5 0 -5 -5v-193q0 -5 5 -5h341q5 0 8.5 -3.5t3.5 -8.5v-76q0 -5 -3.5 -8.5t-8.5 -3.5h-450q-5 0 -8.5 3.5t-3.5 8.5v676q0 5 3.5 8.5
t8.5 3.5h450q5 0 8.5 -3.5t3.5 -8.5v-76q0 -5 -3.5 -8.5zM351 795q-20 20 -20 51t20 51t51 20t50.5 -20t19.5 -51t-20 -51t-50 -20q-31 0 -51 20zM161 795q-20 20 -20 51t20 51t51 20t50.5 -20t19.5 -51t-20 -51t-50 -20q-31 0 -51 20z" />
    <glyph glyph-name="Igrave" unicode="&#xcc;" horiz-adv-x="262" 
d="M76.5 3.5q-3.5 3.5 -3.5 8.5v676q0 5 3.5 8.5t8.5 3.5h92q5 0 8.5 -3.5t3.5 -8.5v-676q0 -5 -3.5 -8.5t-8.5 -3.5h-92q-5 0 -8.5 3.5zM175 772q0 -8 -10 -8h-66q-9 0 -14 8l-69 102q-2 4 -2 7q0 8 10 8h79q11 0 15 -8l55 -103q2 -4 2 -6z" />
    <glyph glyph-name="Iacute" unicode="&#xcd;" horiz-adv-x="262" 
d="M76.5 3.5q-3.5 3.5 -3.5 8.5v676q0 5 3.5 8.5t8.5 3.5h92q5 0 8.5 -3.5t3.5 -8.5v-676q0 -5 -3.5 -8.5t-8.5 -3.5h-92q-5 0 -8.5 3.5zM75 768q-2 4 1 10l55 103q4 8 15 8h79q7 0 9.5 -4.5t-1.5 -10.5l-69 -102q-5 -8 -14 -8h-66q-7 0 -9 4z" />
    <glyph glyph-name="Icircumflex" unicode="&#xce;" horiz-adv-x="262" 
d="M76.5 3.5q-3.5 3.5 -3.5 8.5v676q0 5 3.5 8.5t8.5 3.5h92q5 0 8.5 -3.5t3.5 -8.5v-676q0 -5 -3.5 -8.5t-8.5 -3.5h-92q-5 0 -8.5 3.5zM-15 766.5q-2 4.5 2 10.5l76 105q5 7 14 7h105q9 0 14 -7l76 -105q3 -4 3 -8q0 -7 -10 -7h-70q-9 0 -14 8l-47 67q-2 2 -4 2t-3 -2
l-47 -67q-5 -8 -14 -8h-71q-8 0 -10 4.5z" />
    <glyph glyph-name="Idieresis" unicode="&#xcf;" horiz-adv-x="262" 
d="M76.5 3.5q-3.5 3.5 -3.5 8.5v676q0 5 3.5 8.5t8.5 3.5h92q5 0 8.5 -3.5t3.5 -8.5v-676q0 -5 -3.5 -8.5t-8.5 -3.5h-92q-5 0 -8.5 3.5zM175 795q-20 20 -20 51t20 51t51 20t50.5 -20t19.5 -51t-20 -51t-50 -20q-31 0 -51 20zM-15 795q-20 20 -20 51t20 51t51 20t50.5 -20
t19.5 -51t-20 -51t-50 -20q-31 0 -51 20z" />
    <glyph glyph-name="Eth" unicode="&#xd0;" horiz-adv-x="674" 
d="M511 675q54 -25 83.5 -71.5t29.5 -108.5v-290q0 -62 -29.5 -108.5t-83.5 -71.5t-126 -25h-244q-5 0 -8.5 3.5t-3.5 8.5v305q0 5 -5 5h-39q-5 0 -8.5 3.5t-3.5 8.5v56q0 5 3.5 8.5t8.5 3.5h39q5 0 5 5v281q0 5 3.5 8.5t8.5 3.5h244q72 0 126 -25zM508 476q0 57 -32 90.5
t-87 33.5h-139q-5 0 -5 -5v-188q0 -5 5 -5h92q5 0 8.5 -3.5t3.5 -8.5v-56q0 -5 -3.5 -8.5t-8.5 -3.5h-92q-5 0 -5 -5v-212q0 -5 5 -5h140q53 0 84.5 33.5t33.5 89.5v253z" />
    <glyph glyph-name="Ntilde" unicode="&#xd1;" horiz-adv-x="669" 
d="M483.5 696.5q3.5 3.5 8.5 3.5h92q5 0 8.5 -3.5t3.5 -8.5v-676q0 -5 -3.5 -8.5t-8.5 -3.5h-89q-10 0 -14 8l-288 472q-2 3 -4 2.5t-2 -4.5l2 -466q0 -5 -3.5 -8.5t-8.5 -3.5h-92q-5 0 -8.5 3.5t-3.5 8.5v676q0 5 3.5 8.5t8.5 3.5h89q10 0 14 -8l287 -472q2 -3 4 -2.5
t2 4.5l-1 466q0 5 3.5 8.5zM360 777.5q-13 4.5 -33 14.5q-3 2 -14.5 7.5t-19.5 8t-16 2.5q-17 0 -29.5 -5.5t-23.5 -17.5q-5 -5 -10 -5q-4 0 -7 4l-32 34q-8 8 -2 16q16 27 41.5 42t56.5 15q20 0 34 -5.5t37 -17.5q19 -10 29 -14t21 -4q30 0 50 25q5 5 9 5q5 0 8 -4l29 -34
q6 -7 3 -15q-13 -26 -39.5 -41t-59.5 -15q-19 0 -32 4.5z" />
    <glyph glyph-name="Ograve" unicode="&#xd2;" horiz-adv-x="621" 
d="M177 20.5q-58 30.5 -89.5 86.5t-31.5 129v228q0 72 32 127.5t89.5 86t132.5 30.5q76 0 133.5 -30.5t89.5 -86t32 -127.5v-228q0 -73 -32 -129t-89.5 -86.5t-133.5 -30.5q-75 0 -133 30.5zM411 129q38 39 38 103v233q0 65 -38 104t-101 39q-62 0 -100 -39t-38 -104v-233
q0 -64 38 -103t100 -39q63 0 101 39zM354 772q0 -8 -10 -8h-66q-9 0 -14 8l-69 102q-2 4 -2 7q0 8 10 8h79q11 0 15 -8l55 -103q2 -4 2 -6z" />
    <glyph glyph-name="Oacute" unicode="&#xd3;" horiz-adv-x="621" 
d="M177 20.5q-58 30.5 -89.5 86.5t-31.5 129v228q0 72 32 127.5t89.5 86t132.5 30.5q76 0 133.5 -30.5t89.5 -86t32 -127.5v-228q0 -73 -32 -129t-89.5 -86.5t-133.5 -30.5q-75 0 -133 30.5zM411 129q38 39 38 103v233q0 65 -38 104t-101 39q-62 0 -100 -39t-38 -104v-233
q0 -64 38 -103t100 -39q63 0 101 39zM254 768q-2 4 1 10l55 103q4 8 15 8h79q7 0 9.5 -4.5t-1.5 -10.5l-69 -102q-5 -8 -14 -8h-66q-7 0 -9 4z" />
    <glyph glyph-name="Ocircumflex" unicode="&#xd4;" horiz-adv-x="621" 
d="M177 20.5q-58 30.5 -89.5 86.5t-31.5 129v228q0 72 32 127.5t89.5 86t132.5 30.5q76 0 133.5 -30.5t89.5 -86t32 -127.5v-228q0 -73 -32 -129t-89.5 -86.5t-133.5 -30.5q-75 0 -133 30.5zM411 129q38 39 38 103v233q0 65 -38 104t-101 39q-62 0 -100 -39t-38 -104v-233
q0 -64 38 -103t100 -39q63 0 101 39zM164 766.5q-2 4.5 2 10.5l76 105q5 7 14 7h105q9 0 14 -7l76 -105q3 -4 3 -8q0 -7 -10 -7h-70q-9 0 -14 8l-47 67q-2 2 -4 2t-3 -2l-47 -67q-5 -8 -14 -8h-71q-8 0 -10 4.5z" />
    <glyph glyph-name="Otilde" unicode="&#xd5;" horiz-adv-x="621" 
d="M177 20.5q-58 30.5 -89.5 86.5t-31.5 129v228q0 72 32 127.5t89.5 86t132.5 30.5q76 0 133.5 -30.5t89.5 -86t32 -127.5v-228q0 -73 -32 -129t-89.5 -86.5t-133.5 -30.5q-75 0 -133 30.5zM411 129q38 39 38 103v233q0 65 -38 104t-101 39q-62 0 -100 -39t-38 -104v-233
q0 -64 38 -103t100 -39q63 0 101 39zM341 777.5q-13 4.5 -33 14.5q-3 2 -14.5 7.5t-19.5 8t-16 2.5q-17 0 -29.5 -5.5t-23.5 -17.5q-5 -5 -10 -5q-4 0 -7 4l-32 34q-8 8 -2 16q16 27 41.5 42t56.5 15q20 0 34 -5.5t37 -17.5q19 -10 29 -14t21 -4q30 0 50 25q5 5 9 5
q5 0 8 -4l29 -34q6 -7 3 -15q-13 -26 -39.5 -41t-59.5 -15q-19 0 -32 4.5z" />
    <glyph glyph-name="Odieresis" unicode="&#xd6;" horiz-adv-x="621" 
d="M177 20.5q-58 30.5 -89.5 86.5t-31.5 129v228q0 72 32 127.5t89.5 86t132.5 30.5q76 0 133.5 -30.5t89.5 -86t32 -127.5v-228q0 -73 -32 -129t-89.5 -86.5t-133.5 -30.5q-75 0 -133 30.5zM411 129q38 39 38 103v233q0 65 -38 104t-101 39q-62 0 -100 -39t-38 -104v-233
q0 -64 38 -103t100 -39q63 0 101 39zM354 795q-20 20 -20 51t20 51t51 20t50.5 -20t19.5 -51t-20 -51t-50 -20q-31 0 -51 20zM164 795q-20 20 -20 51t20 51t51 20t50.5 -20t19.5 -51t-20 -51t-50 -20q-31 0 -51 20z" />
    <glyph glyph-name="multiply" unicode="&#xd7;" horiz-adv-x="437" 
d="M401 431q0 -4 -4 -8l-103 -103q-2 -2 -2 -4t2 -4l102 -102q4 -3 4 -8q0 -4 -4 -8l-55 -55q-4 -4 -8 -4q-2 0 -8 4l-102 102q-2 2 -4 2t-4 -2l-103 -103q-4 -4 -8 -4q-2 0 -8 4l-54 54q-4 6 -4 8q0 4 4 8l103 103q2 2 2 4t-2 4l-105 105q-4 6 -4 9q0 4 4 8l54 54q4 4 9 4
q4 0 8 -4l105 -105q2 -2 4 -2t4 2l103 103q4 4 8 4q5 0 8 -4l54 -54q4 -3 4 -8z" />
    <glyph glyph-name="Oslash" unicode="&#xd8;" horiz-adv-x="622" 
d="M589 673q0 -5 -2 -8l-49 -73q-1 -3 0 -7q28 -53 28 -121v-228q0 -73 -32 -129t-89.5 -86.5t-133.5 -30.5q-84 0 -146 37q-4 2 -7 -1l-36 -55q-3 -5 -8 -6t-9 2l-70 44q-9 6 -3 16l53 80q1 3 0 7q-28 54 -28 122v228q0 72 31.5 127.5t89 86t133.5 30.5q83 0 145 -37
q4 -1 7 2l37 56q3 6 9 6q5 0 8 -3l67 -50q5 -2 5 -9zM173 250q0 -3 2.5 -4t3.5 2l218 327q4 4 -1 7q-34 26 -85 26q-62 0 -100 -39t-38 -104v-215zM450 450q0 3 -2.5 4t-3.5 -2l-220 -329q-4 -4 1 -7q36 -26 86 -26q63 0 101 39t38 103v218z" />
    <glyph glyph-name="Ugrave" unicode="&#xd9;" horiz-adv-x="636" 
d="M187 21q-57 29 -88.5 82.5t-31.5 123.5v461q0 5 3.5 8.5t8.5 3.5h92q5 0 8.5 -3.5t3.5 -8.5v-463q0 -59 37 -96t98 -37t98 37t37 96v463q0 5 3.5 8.5t8.5 3.5h92q5 0 8.5 -3.5t3.5 -8.5v-461q0 -70 -31 -123.5t-88 -82.5t-132 -29q-74 0 -131 29zM362 772q0 -8 -10 -8
h-66q-9 0 -14 8l-69 102q-2 4 -2 7q0 8 10 8h79q11 0 15 -8l55 -103q2 -4 2 -6z" />
    <glyph glyph-name="Uacute" unicode="&#xda;" horiz-adv-x="636" 
d="M187 21q-57 29 -88.5 82.5t-31.5 123.5v461q0 5 3.5 8.5t8.5 3.5h92q5 0 8.5 -3.5t3.5 -8.5v-463q0 -59 37 -96t98 -37t98 37t37 96v463q0 5 3.5 8.5t8.5 3.5h92q5 0 8.5 -3.5t3.5 -8.5v-461q0 -70 -31 -123.5t-88 -82.5t-132 -29q-74 0 -131 29zM262 768q-2 4 1 10
l55 103q4 8 15 8h79q7 0 9.5 -4.5t-1.5 -10.5l-69 -102q-5 -8 -14 -8h-66q-7 0 -9 4z" />
    <glyph glyph-name="Ucircumflex" unicode="&#xdb;" horiz-adv-x="636" 
d="M187 21q-57 29 -88.5 82.5t-31.5 123.5v461q0 5 3.5 8.5t8.5 3.5h92q5 0 8.5 -3.5t3.5 -8.5v-463q0 -59 37 -96t98 -37t98 37t37 96v463q0 5 3.5 8.5t8.5 3.5h92q5 0 8.5 -3.5t3.5 -8.5v-461q0 -70 -31 -123.5t-88 -82.5t-132 -29q-74 0 -131 29zM172 766.5
q-2 4.5 2 10.5l76 105q5 7 14 7h105q9 0 14 -7l76 -105q3 -4 3 -8q0 -7 -10 -7h-70q-9 0 -14 8l-47 67q-2 2 -4 2t-3 -2l-47 -67q-5 -8 -14 -8h-71q-8 0 -10 4.5z" />
    <glyph glyph-name="Udieresis" unicode="&#xdc;" horiz-adv-x="636" 
d="M187 21q-57 29 -88.5 82.5t-31.5 123.5v461q0 5 3.5 8.5t8.5 3.5h92q5 0 8.5 -3.5t3.5 -8.5v-463q0 -59 37 -96t98 -37t98 37t37 96v463q0 5 3.5 8.5t8.5 3.5h92q5 0 8.5 -3.5t3.5 -8.5v-461q0 -70 -31 -123.5t-88 -82.5t-132 -29q-74 0 -131 29zM362 795q-20 20 -20 51
t20 51t51 20t50.5 -20t19.5 -51t-20 -51t-50 -20q-31 0 -51 20zM172 795q-20 20 -20 51t20 51t51 20t50.5 -20t19.5 -51t-20 -51t-50 -20q-31 0 -51 20z" />
    <glyph glyph-name="Yacute" unicode="&#xdd;" horiz-adv-x="599" 
d="M244.5 4.5q-3.5 3.5 -3.5 8.5v268q0 4 -1 6l-206 399q-2 4 -2 6q0 8 11 8h99q10 0 14 -9l140 -279q3 -4 6 0l141 279q5 9 14 9h100q7 0 9.5 -4t-0.5 -10l-207 -399q-2 -4 -2 -6v-268q0 -5 -3.5 -8.5t-8.5 -3.5h-92q-5 0 -8.5 3.5zM243 767q-2 4 1 10l55 103q4 8 15 8h79
q7 0 9.5 -4.5t-1.5 -10.5l-69 -102q-5 -8 -14 -8h-66q-7 0 -9 4z" />
    <glyph glyph-name="Thorn" unicode="&#xde;" horiz-adv-x="576" 
d="M446 529q48 -26 74.5 -73t26.5 -108q0 -60 -28.5 -106t-78 -71.5t-110.5 -25.5h-142q-5 0 -5 -5v-128q0 -5 -3.5 -8.5t-8.5 -3.5h-92q-5 0 -8.5 3.5t-3.5 8.5v676q0 5 3.5 8.5t8.5 3.5h92q5 0 8.5 -3.5t3.5 -8.5v-128q0 -5 5 -5h147q63 0 111 -26zM400 268q31 28 31 78
t-31 79.5t-82 29.5h-130q-5 0 -5 -5v-205q0 -5 5 -5h130q51 0 82 28z" />
    <glyph glyph-name="germandbls" unicode="&#xdf;" horiz-adv-x="568" 
d="M66.5 4.5q-3.5 3.5 -3.5 8.5v480q1 102 59 158.5t163 56.5q101 0 163 -51.5t63 -138.5q0 -97 -77 -138q-6 -3 0 -6q40 -21 63.5 -66t23.5 -105q0 -96 -63 -149.5t-179 -53.5h-43q-5 0 -8.5 3.5t-3.5 8.5v75q0 5 3.5 8.5t8.5 3.5h54q52 0 83.5 30.5t31.5 85.5
q0 53 -29.5 83.5t-76.5 30.5h-48q-5 0 -8.5 3.5t-3.5 8.5v68q0 5 3.5 8.5t8.5 3.5h46q44 0 71 25.5t27 66.5q0 42 -26.5 69t-76.5 27q-49 0 -80.5 -28t-32.5 -77v-492q0 -5 -3.5 -8.5t-8.5 -3.5l-92 1q-5 0 -8.5 3.5z" />
    <glyph glyph-name="agrave" unicode="&#xe0;" horiz-adv-x="522" 
d="M368 497q48 -22 74 -60.5t26 -87.5v-337q0 -5 -3.5 -8.5t-8.5 -3.5h-92q-5 0 -8.5 3.5t-3.5 8.5v32q0 3 -2 3.5t-4 -1.5q-49 -54 -142 -54q-75 0 -123.5 38t-48.5 113q0 78 54.5 121.5t153.5 43.5h107q5 0 5 5v24q0 39 -23 60.5t-69 21.5q-38 0 -61.5 -13.5t-29.5 -37.5
q-3 -12 -14 -10l-97 12q-5 1 -8.5 3.5t-2.5 6.5q8 61 65.5 100t144.5 39q63 0 111 -22zM317 110q35 26 35 66v47q0 5 -5 5h-84q-53 0 -83.5 -20t-30.5 -57q0 -32 23.5 -49.5t60.5 -17.5q49 0 84 26zM305 583q0 -8 -10 -8h-66q-9 0 -14 8l-69 102q-2 4 -2 7q0 8 10 8h79
q11 0 15 -8l55 -103q2 -4 2 -6z" />
    <glyph glyph-name="aacute" unicode="&#xe1;" horiz-adv-x="522" 
d="M368 497q48 -22 74 -60.5t26 -87.5v-337q0 -5 -3.5 -8.5t-8.5 -3.5h-92q-5 0 -8.5 3.5t-3.5 8.5v32q0 3 -2 3.5t-4 -1.5q-49 -54 -142 -54q-75 0 -123.5 38t-48.5 113q0 78 54.5 121.5t153.5 43.5h107q5 0 5 5v24q0 39 -23 60.5t-69 21.5q-38 0 -61.5 -13.5t-29.5 -37.5
q-3 -12 -14 -10l-97 12q-5 1 -8.5 3.5t-2.5 6.5q8 61 65.5 100t144.5 39q63 0 111 -22zM317 110q35 26 35 66v47q0 5 -5 5h-84q-53 0 -83.5 -20t-30.5 -57q0 -32 23.5 -49.5t60.5 -17.5q49 0 84 26zM205 579q-2 4 1 10l55 103q4 8 15 8h79q7 0 9.5 -4.5t-1.5 -10.5l-69 -102
q-5 -8 -14 -8h-66q-7 0 -9 4z" />
    <glyph glyph-name="acircumflex" unicode="&#xe2;" horiz-adv-x="522" 
d="M368 497q48 -22 74 -60.5t26 -87.5v-337q0 -5 -3.5 -8.5t-8.5 -3.5h-92q-5 0 -8.5 3.5t-3.5 8.5v32q0 3 -2 3.5t-4 -1.5q-49 -54 -142 -54q-75 0 -123.5 38t-48.5 113q0 78 54.5 121.5t153.5 43.5h107q5 0 5 5v24q0 39 -23 60.5t-69 21.5q-38 0 -61.5 -13.5t-29.5 -37.5
q-3 -12 -14 -10l-97 12q-5 1 -8.5 3.5t-2.5 6.5q8 61 65.5 100t144.5 39q63 0 111 -22zM317 110q35 26 35 66v47q0 5 -5 5h-84q-53 0 -83.5 -20t-30.5 -57q0 -32 23.5 -49.5t60.5 -17.5q49 0 84 26zM115 577.5q-2 4.5 2 10.5l76 105q5 7 14 7h105q9 0 14 -7l76 -105
q3 -4 3 -8q0 -7 -10 -7h-70q-9 0 -14 8l-47 67q-2 2 -4 2t-3 -2l-47 -67q-5 -8 -14 -8h-71q-8 0 -10 4.5z" />
    <glyph glyph-name="atilde" unicode="&#xe3;" horiz-adv-x="522" 
d="M368 497q48 -22 74 -60.5t26 -87.5v-337q0 -5 -3.5 -8.5t-8.5 -3.5h-92q-5 0 -8.5 3.5t-3.5 8.5v32q0 3 -2 3.5t-4 -1.5q-49 -54 -142 -54q-75 0 -123.5 38t-48.5 113q0 78 54.5 121.5t153.5 43.5h107q5 0 5 5v24q0 39 -23 60.5t-69 21.5q-38 0 -61.5 -13.5t-29.5 -37.5
q-3 -12 -14 -10l-97 12q-5 1 -8.5 3.5t-2.5 6.5q8 61 65.5 100t144.5 39q63 0 111 -22zM317 110q35 26 35 66v47q0 5 -5 5h-84q-53 0 -83.5 -20t-30.5 -57q0 -32 23.5 -49.5t60.5 -17.5q49 0 84 26zM292 588.5q-13 4.5 -33 14.5q-3 2 -14.5 7.5t-19.5 8t-16 2.5
q-17 0 -29.5 -5.5t-23.5 -17.5q-5 -5 -10 -5q-4 0 -7 4l-32 34q-8 8 -2 16q16 27 41.5 42t56.5 15q20 0 34 -5.5t37 -17.5q19 -10 29 -14t21 -4q30 0 50 25q5 5 9 5q5 0 8 -4l29 -34q6 -7 3 -15q-13 -26 -39.5 -41t-59.5 -15q-19 0 -32 4.5z" />
    <glyph glyph-name="adieresis" unicode="&#xe4;" horiz-adv-x="522" 
d="M368 497q48 -22 74 -60.5t26 -87.5v-337q0 -5 -3.5 -8.5t-8.5 -3.5h-92q-5 0 -8.5 3.5t-3.5 8.5v32q0 3 -2 3.5t-4 -1.5q-49 -54 -142 -54q-75 0 -123.5 38t-48.5 113q0 78 54.5 121.5t153.5 43.5h107q5 0 5 5v24q0 39 -23 60.5t-69 21.5q-38 0 -61.5 -13.5t-29.5 -37.5
q-3 -12 -14 -10l-97 12q-5 1 -8.5 3.5t-2.5 6.5q8 61 65.5 100t144.5 39q63 0 111 -22zM317 110q35 26 35 66v47q0 5 -5 5h-84q-53 0 -83.5 -20t-30.5 -57q0 -32 23.5 -49.5t60.5 -17.5q49 0 84 26zM305 606q-20 20 -20 51t20 51t51 20t50.5 -20t19.5 -51t-20 -51t-50 -20
q-31 0 -51 20zM115 606q-20 20 -20 51t20 51t51 20t50.5 -20t19.5 -51t-20 -51t-50 -20q-31 0 -51 20z" />
    <glyph glyph-name="aring" unicode="&#xe5;" horiz-adv-x="522" 
d="M368 497q48 -22 74 -60.5t26 -87.5v-337q0 -5 -3.5 -8.5t-8.5 -3.5h-92q-5 0 -8.5 3.5t-3.5 8.5v32q0 3 -2 3.5t-4 -1.5q-49 -54 -142 -54q-75 0 -123.5 38t-48.5 113q0 78 54.5 121.5t153.5 43.5h107q5 0 5 5v24q0 39 -23 60.5t-69 21.5q-38 0 -61.5 -13.5t-29.5 -37.5
q-3 -12 -14 -10l-97 12q-5 1 -8.5 3.5t-2.5 6.5q8 61 65.5 100t144.5 39q63 0 111 -22zM317 110q35 26 35 66v47q0 5 -5 5h-84q-53 0 -83.5 -20t-30.5 -57q0 -32 23.5 -49.5t60.5 -17.5q49 0 84 26zM175.5 602.5q-34.5 34.5 -34.5 84.5t34.5 84t85.5 34q50 0 84.5 -34
t34.5 -84t-34.5 -84.5t-84.5 -34.5q-51 0 -85.5 34.5zM300.5 647q16.5 16 16.5 40t-16.5 40t-39.5 16t-39.5 -16t-16.5 -40q0 -23 16.5 -39.5t39.5 -16.5t39.5 16z" />
    <glyph glyph-name="ae" unicode="&#xe6;" horiz-adv-x="836" 
d="M84 28q-52 36 -52 110t54.5 118t153.5 44h107q5 0 5 5v26q0 40 -24.5 64t-72.5 24q-35 0 -59.5 -13.5t-31.5 -37.5q-3 -12 -14 -10l-92 12q-5 1 -8.5 4.5t-2.5 9.5q5 38 33.5 69t73 48.5t96.5 17.5q55 0 100 -23t64 -56q3 -6 6 0q20 31 62.5 55t92.5 24q69 0 126.5 -39.5
t77.5 -105.5q13 -44 13 -147q0 -13 -12 -13h-305q-5 0 -5 -5q0 -7 3 -30q5 -40 38 -61t82 -21q76 0 110 54q6 11 16 3l54 -41q8 -7 4 -17q-27 -45 -78.5 -74.5t-118.5 -29.5q-55 0 -99.5 22t-66.5 57q-3 5 -5 1q-24 -37 -74 -58.5t-114 -21.5q-85 0 -137 36zM474 300h197
q5 0 5 5q-2 28 -5 38q-8 34 -34.5 55t-64.5 21t-64 -21t-34 -55q-3 -12 -5 -38q0 -5 5 -5zM318 104.5q34 24.5 34 68.5v36q0 5 -5 5h-85q-53 0 -83.5 -17t-30.5 -50q0 -30 24.5 -48.5t64.5 -18.5q47 0 81 24.5z" />
    <glyph glyph-name="ccedilla" unicode="&#xe7;" horiz-adv-x="531" 
d="M377 169q1 1 1 3q3 12 14 10l90 -14q5 -1 8.5 -4.5t2.5 -9.5q-3 -16 -5 -23q-16 -55 -61.5 -90.5t-107.5 -45.5q-7 -1 -2 -6q45 -44 45 -89q0 -11 -3 -23q-9 -33 -34 -47.5t-58 -14.5q-30 0 -54 8q-9 4 -8 15l5 38q1 13 15 8q10 -3 19 -3q17 0 28 9.5t11 28.5
q0 34 -51 75l-6 3q-59 10 -101 47.5t-61 93.5q-16 45 -16 120q0 72 16 118q21 66 77.5 104.5t133.5 38.5q78 0 136 -39t77 -98q5 -16 7 -32v-2q0 -10 -11 -12l-90 -13h-2q-9 0 -12 10q0 5 -1 8q-2 8 -4 14q-9 28 -36 46t-64 18q-38 0 -64.5 -19.5t-35.5 -53.5
q-10 -32 -10 -89q0 -55 9 -89q10 -35 36 -55.5t65 -20.5q38 0 65.5 19.5t35.5 52.5q1 2 1 5z" />
    <glyph glyph-name="egrave" unicode="&#xe8;" horiz-adv-x="540" 
d="M497 257l-1 -31q0 -12 -12 -12h-313q-5 0 -5 -5q3 -33 9 -45q24 -72 117 -73q68 0 108 56q4 6 10 6q4 0 7 -3l62 -51q9 -7 3 -16q-31 -44 -82.5 -68t-114.5 -24q-78 0 -132.5 35t-79.5 98q-23 54 -23 150q0 58 12 94q20 70 75.5 110.5t133.5 40.5q197 0 222 -206
q4 -25 4 -56zM209.5 400.5q-24.5 -18.5 -34.5 -51.5q-6 -17 -8 -44q-2 -5 4 -5h203q5 0 5 5q-2 25 -6 38q-9 36 -35.5 56t-66.5 20q-37 0 -61.5 -18.5zM313 583q0 -8 -10 -8h-66q-9 0 -14 8l-69 102q-2 4 -2 7q0 8 10 8h79q11 0 15 -8l55 -103q2 -4 2 -6z" />
    <glyph glyph-name="eacute" unicode="&#xe9;" horiz-adv-x="540" 
d="M497 257l-1 -31q0 -12 -12 -12h-313q-5 0 -5 -5q3 -33 9 -45q24 -72 117 -73q68 0 108 56q4 6 10 6q4 0 7 -3l62 -51q9 -7 3 -16q-31 -44 -82.5 -68t-114.5 -24q-78 0 -132.5 35t-79.5 98q-23 54 -23 150q0 58 12 94q20 70 75.5 110.5t133.5 40.5q197 0 222 -206
q4 -25 4 -56zM209.5 400.5q-24.5 -18.5 -34.5 -51.5q-6 -17 -8 -44q-2 -5 4 -5h203q5 0 5 5q-2 25 -6 38q-9 36 -35.5 56t-66.5 20q-37 0 -61.5 -18.5zM213 579q-2 4 1 10l55 103q4 8 15 8h79q7 0 9.5 -4.5t-1.5 -10.5l-69 -102q-5 -8 -14 -8h-66q-7 0 -9 4z" />
    <glyph glyph-name="ecircumflex" unicode="&#xea;" horiz-adv-x="540" 
d="M497 257l-1 -31q0 -12 -12 -12h-313q-5 0 -5 -5q3 -33 9 -45q24 -72 117 -73q68 0 108 56q4 6 10 6q4 0 7 -3l62 -51q9 -7 3 -16q-31 -44 -82.5 -68t-114.5 -24q-78 0 -132.5 35t-79.5 98q-23 54 -23 150q0 58 12 94q20 70 75.5 110.5t133.5 40.5q197 0 222 -206
q4 -25 4 -56zM209.5 400.5q-24.5 -18.5 -34.5 -51.5q-6 -17 -8 -44q-2 -5 4 -5h203q5 0 5 5q-2 25 -6 38q-9 36 -35.5 56t-66.5 20q-37 0 -61.5 -18.5zM124 577.5q-2 4.5 2 10.5l76 105q5 7 14 7h105q9 0 14 -7l76 -105q3 -4 3 -8q0 -7 -10 -7h-70q-9 0 -14 8l-47 67
q-2 2 -4 2t-3 -2l-47 -67q-5 -8 -14 -8h-71q-8 0 -10 4.5z" />
    <glyph glyph-name="edieresis" unicode="&#xeb;" horiz-adv-x="540" 
d="M497 257l-1 -31q0 -12 -12 -12h-313q-5 0 -5 -5q3 -33 9 -45q24 -72 117 -73q68 0 108 56q4 6 10 6q4 0 7 -3l62 -51q9 -7 3 -16q-31 -44 -82.5 -68t-114.5 -24q-78 0 -132.5 35t-79.5 98q-23 54 -23 150q0 58 12 94q20 70 75.5 110.5t133.5 40.5q197 0 222 -206
q4 -25 4 -56zM209.5 400.5q-24.5 -18.5 -34.5 -51.5q-6 -17 -8 -44q-2 -5 4 -5h203q5 0 5 5q-2 25 -6 38q-9 36 -35.5 56t-66.5 20q-37 0 -61.5 -18.5zM314 606q-20 20 -20 51t20 51t51 20t50.5 -20t19.5 -51t-20 -51t-50 -20q-31 0 -51 20zM124 606q-20 20 -20 51t20 51
t51 20t50.5 -20t19.5 -51t-20 -51t-50 -20q-31 0 -51 20z" />
    <glyph glyph-name="igrave" unicode="&#xec;" horiz-adv-x="228" 
d="M59.5 3.5q-3.5 3.5 -3.5 8.5v487q0 5 3.5 8.5t8.5 3.5h92q5 0 8.5 -3.5t3.5 -8.5v-487q0 -5 -3.5 -8.5t-8.5 -3.5h-92q-5 0 -8.5 3.5zM158 583q0 -8 -10 -8h-66q-9 0 -14 8l-69 102q-2 4 -2 7q0 8 10 8h79q11 0 15 -8l55 -103q2 -4 2 -6z" />
    <glyph glyph-name="iacute" unicode="&#xed;" horiz-adv-x="228" 
d="M59.5 3.5q-3.5 3.5 -3.5 8.5v487q0 5 3.5 8.5t8.5 3.5h92q5 0 8.5 -3.5t3.5 -8.5v-487q0 -5 -3.5 -8.5t-8.5 -3.5h-92q-5 0 -8.5 3.5zM58 579q-2 4 1 10l55 103q4 8 15 8h79q7 0 9.5 -4.5t-1.5 -10.5l-69 -102q-5 -8 -14 -8h-66q-7 0 -9 4z" />
    <glyph glyph-name="icircumflex" unicode="&#xee;" horiz-adv-x="228" 
d="M59.5 3.5q-3.5 3.5 -3.5 8.5v487q0 5 3.5 8.5t8.5 3.5h92q5 0 8.5 -3.5t3.5 -8.5v-487q0 -5 -3.5 -8.5t-8.5 -3.5h-92q-5 0 -8.5 3.5zM-32 577.5q-2 4.5 2 10.5l76 105q5 7 14 7h105q9 0 14 -7l76 -105q3 -4 3 -8q0 -7 -10 -7h-70q-9 0 -14 8l-47 67q-2 2 -4 2t-3 -2
l-47 -67q-5 -8 -14 -8h-71q-8 0 -10 4.5z" />
    <glyph glyph-name="idieresis" unicode="&#xef;" horiz-adv-x="228" 
d="M59.5 3.5q-3.5 3.5 -3.5 8.5v487q0 5 3.5 8.5t8.5 3.5h92q5 0 8.5 -3.5t3.5 -8.5v-487q0 -5 -3.5 -8.5t-8.5 -3.5h-92q-5 0 -8.5 3.5zM158 606q-20 20 -20 51t20 51t51 20t50.5 -20t19.5 -51t-20 -51t-50 -20q-31 0 -51 20zM-32 606q-20 20 -20 51t20 51t51 20t50.5 -20
t19.5 -51t-20 -51t-50 -20q-31 0 -51 20z" />
    <glyph glyph-name="eth" unicode="&#xf0;" horiz-adv-x="543" 
d="M489 238q0 -74 -13 -112q-22 -60 -77.5 -97t-130.5 -37q-74 0 -129 36.5t-77 97.5q-14 41 -14 111q0 72 14 111q13 41 44 69.5t74 37.5q35 10 75 10q55 0 85 -17q3 -1 4.5 0t-0.5 4q-18 47 -50 92q-1 2 -2.5 2.5t-3.5 -0.5l-97 -27l-4 -1q-8 0 -11 10l-10 40l-1 4
q0 7 9 10l69 19q5 2 2 7q-32 35 -76 77q-5 5 -5 9q0 2 3 4t7 2h98q8 0 15 -7l53 -61q4 -4 7 -2l82 23l4 1q8 0 11 -10l10 -39l1 -4q0 -8 -9 -11l-52 -14q-2 -1 -3 -3t0 -3q36 -49 58 -98.5t30 -109.5q10 -53 10 -124zM372 234q0 57 -9 79q-9 33 -34 52.5t-61 19.5t-61 -19.5
t-34 -52.5q-8 -24 -8 -79q0 -54 9 -81q9 -34 34 -53.5t60 -19.5t60.5 20t34.5 53q9 23 9 81z" />
    <glyph glyph-name="ntilde" unicode="&#xf1;" 
d="M436.5 471q48.5 -48 48.5 -131v-328q0 -5 -3.5 -8.5t-8.5 -3.5h-92q-5 0 -8.5 3.5t-3.5 8.5v304q0 46 -26 74.5t-69 28.5t-69.5 -28t-26.5 -74v-305q0 -5 -3.5 -8.5t-8.5 -3.5h-92q-5 0 -8.5 3.5t-3.5 8.5v487q0 5 3.5 8.5t8.5 3.5h92q5 0 8.5 -3.5t3.5 -8.5v-32
q0 -3 2 -4t3 2q41 54 124 54q81 0 129.5 -48zM307 588.5q-13 4.5 -33 14.5q-3 2 -14.5 7.5t-19.5 8t-16 2.5q-17 0 -29.5 -5.5t-23.5 -17.5q-5 -5 -10 -5q-4 0 -7 4l-32 34q-8 8 -2 16q16 27 41.5 42t56.5 15q20 0 34 -5.5t37 -17.5q19 -10 29 -14t21 -4q30 0 50 25q5 5 9 5
q5 0 8 -4l29 -34q6 -7 3 -15q-13 -26 -39.5 -41t-59.5 -15q-19 0 -32 4.5z" />
    <glyph glyph-name="ograve" unicode="&#xf2;" horiz-adv-x="545" 
d="M143.5 32q-56.5 40 -79.5 111q-17 54 -17 114q0 64 16 114q23 70 80 109t137 39q76 0 131.5 -39t78.5 -108q18 -48 18 -114q0 -63 -17 -114q-23 -71 -79 -111.5t-133 -40.5q-79 0 -135.5 40zM342.5 113q26.5 21 38.5 59q10 33 10 84q0 54 -10 84q-11 38 -38 58.5
t-66 20.5q-37 0 -64 -20.5t-39 -58.5q-10 -35 -10 -84t10 -84q11 -38 38.5 -59t66.5 -21q37 0 63.5 21zM316 583q0 -8 -10 -8h-66q-9 0 -14 8l-69 102q-2 4 -2 7q0 8 10 8h79q11 0 15 -8l55 -103q2 -4 2 -6z" />
    <glyph glyph-name="oacute" unicode="&#xf3;" horiz-adv-x="545" 
d="M143.5 32q-56.5 40 -79.5 111q-17 54 -17 114q0 64 16 114q23 70 80 109t137 39q76 0 131.5 -39t78.5 -108q18 -48 18 -114q0 -63 -17 -114q-23 -71 -79 -111.5t-133 -40.5q-79 0 -135.5 40zM342.5 113q26.5 21 38.5 59q10 33 10 84q0 54 -10 84q-11 38 -38 58.5
t-66 20.5q-37 0 -64 -20.5t-39 -58.5q-10 -35 -10 -84t10 -84q11 -38 38.5 -59t66.5 -21q37 0 63.5 21zM216 579q-2 4 1 10l55 103q4 8 15 8h79q7 0 9.5 -4.5t-1.5 -10.5l-69 -102q-5 -8 -14 -8h-66q-7 0 -9 4z" />
    <glyph glyph-name="ocircumflex" unicode="&#xf4;" horiz-adv-x="545" 
d="M143.5 32q-56.5 40 -79.5 111q-17 54 -17 114q0 64 16 114q23 70 80 109t137 39q76 0 131.5 -39t78.5 -108q18 -48 18 -114q0 -63 -17 -114q-23 -71 -79 -111.5t-133 -40.5q-79 0 -135.5 40zM342.5 113q26.5 21 38.5 59q10 33 10 84q0 54 -10 84q-11 38 -38 58.5
t-66 20.5q-37 0 -64 -20.5t-39 -58.5q-10 -35 -10 -84t10 -84q11 -38 38.5 -59t66.5 -21q37 0 63.5 21zM126 577.5q-2 4.5 2 10.5l76 105q5 7 14 7h105q9 0 14 -7l76 -105q3 -4 3 -8q0 -7 -10 -7h-70q-9 0 -14 8l-47 67q-2 2 -4 2t-3 -2l-47 -67q-5 -8 -14 -8h-71
q-8 0 -10 4.5z" />
    <glyph glyph-name="otilde" unicode="&#xf5;" horiz-adv-x="545" 
d="M143.5 32q-56.5 40 -79.5 111q-17 54 -17 114q0 64 16 114q23 70 80 109t137 39q76 0 131.5 -39t78.5 -108q18 -48 18 -114q0 -63 -17 -114q-23 -71 -79 -111.5t-133 -40.5q-79 0 -135.5 40zM342.5 113q26.5 21 38.5 59q10 33 10 84q0 54 -10 84q-11 38 -38 58.5
t-66 20.5q-37 0 -64 -20.5t-39 -58.5q-10 -35 -10 -84t10 -84q11 -38 38.5 -59t66.5 -21q37 0 63.5 21zM303 588.5q-13 4.5 -33 14.5q-3 2 -14.5 7.5t-19.5 8t-16 2.5q-17 0 -29.5 -5.5t-23.5 -17.5q-5 -5 -10 -5q-4 0 -7 4l-32 34q-8 8 -2 16q16 27 41.5 42t56.5 15
q20 0 34 -5.5t37 -17.5q19 -10 29 -14t21 -4q30 0 50 25q5 5 9 5q5 0 8 -4l29 -34q6 -7 3 -15q-13 -26 -39.5 -41t-59.5 -15q-19 0 -32 4.5z" />
    <glyph glyph-name="odieresis" unicode="&#xf6;" horiz-adv-x="545" 
d="M143.5 32q-56.5 40 -79.5 111q-17 54 -17 114q0 64 16 114q23 70 80 109t137 39q76 0 131.5 -39t78.5 -108q18 -48 18 -114q0 -63 -17 -114q-23 -71 -79 -111.5t-133 -40.5q-79 0 -135.5 40zM342.5 113q26.5 21 38.5 59q10 33 10 84q0 54 -10 84q-11 38 -38 58.5
t-66 20.5q-37 0 -64 -20.5t-39 -58.5q-10 -35 -10 -84t10 -84q11 -38 38.5 -59t66.5 -21q37 0 63.5 21zM316 606q-20 20 -20 51t20 51t51 20t50.5 -20t19.5 -51t-20 -51t-50 -20q-31 0 -51 20zM126 606q-20 20 -20 51t20 51t51 20t50.5 -20t19.5 -51t-20 -51t-50 -20
q-31 0 -51 20z" />
    <glyph glyph-name="divide" unicode="&#xf7;" horiz-adv-x="491" 
d="M200.5 444q-18.5 19 -18.5 45q0 25 18.5 43.5t44.5 18.5q25 0 44 -18.5t19 -43.5q0 -26 -18.5 -45t-44.5 -19t-44.5 19zM35.5 270.5q-3.5 3.5 -3.5 8.5v75q0 5 3.5 8.5t8.5 3.5h402q5 0 8.5 -3.5t3.5 -8.5v-75q0 -5 -3.5 -8.5t-8.5 -3.5h-402q-5 0 -8.5 3.5zM200.5 112.5
q-18.5 18.5 -18.5 44.5t18.5 44t44.5 18t44.5 -18.5t18.5 -43.5q0 -26 -18.5 -44.5t-44.5 -18.5t-44.5 18.5z" />
    <glyph glyph-name="oslash" unicode="&#xf8;" horiz-adv-x="532" 
d="M452 427q17 -26 27 -55q18 -48 18 -114q0 -63 -17 -114q-23 -71 -79 -111.5t-133 -40.5q-56 0 -103 21q-4 1 -7 -2l-35 -51q-3 -5 -9 -5q-4 0 -8 3l-64 52q-5 5 -5 9t3 8l38 55q1 3 0 7q-14 22 -25 54q-17 49 -17 114q0 64 16 114q23 70 80 109t137 39q55 0 96 -19
q4 -1 7 2l36 52q3 5 9 5q3 0 8 -3l64 -51q5 -5 5 -9q0 -3 -3 -8l-39 -55q-1 -3 0 -6zM157 205q0 -4 2 -4t4 2l142 203q3 5 -2 7q-16 6 -37 6q-38 0 -65 -20.5t-38 -58.5q-10 -35 -10 -84q0 -30 4 -51zM380 256q0 34 -4 57q-1 3 -3 3t-4 -2l-144 -208q-3 -5 2 -7q17 -7 41 -7
q37 0 63.5 21t37.5 59q11 32 11 84z" />
    <glyph glyph-name="ugrave" unicode="&#xf9;" 
d="M367.5 507.5q3.5 3.5 8.5 3.5h91q5 0 8.5 -3.5t3.5 -8.5v-487q0 -5 -3.5 -8.5t-8.5 -3.5h-91q-5 0 -8.5 3.5t-3.5 8.5v32q0 3 -2 4t-4 -2q-41 -53 -123 -53q-76 0 -127.5 44t-51.5 125v337q0 5 3.5 8.5t8.5 3.5h92q5 0 8.5 -3.5t3.5 -8.5v-304q0 -47 24.5 -75t68.5 -28
q45 0 72 28t27 75v304q0 5 3.5 8.5zM315 583q0 -8 -10 -8h-66q-9 0 -14 8l-69 102q-2 4 -2 7q0 8 10 8h79q11 0 15 -8l55 -103q2 -4 2 -6z" />
    <glyph glyph-name="uacute" unicode="&#xfa;" 
d="M367.5 507.5q3.5 3.5 8.5 3.5h91q5 0 8.5 -3.5t3.5 -8.5v-487q0 -5 -3.5 -8.5t-8.5 -3.5h-91q-5 0 -8.5 3.5t-3.5 8.5v32q0 3 -2 4t-4 -2q-41 -53 -123 -53q-76 0 -127.5 44t-51.5 125v337q0 5 3.5 8.5t8.5 3.5h92q5 0 8.5 -3.5t3.5 -8.5v-304q0 -47 24.5 -75t68.5 -28
q45 0 72 28t27 75v304q0 5 3.5 8.5zM215 579q-2 4 1 10l55 103q4 8 15 8h79q7 0 9.5 -4.5t-1.5 -10.5l-69 -102q-5 -8 -14 -8h-66q-7 0 -9 4z" />
    <glyph glyph-name="ucircumflex" unicode="&#xfb;" 
d="M367.5 507.5q3.5 3.5 8.5 3.5h91q5 0 8.5 -3.5t3.5 -8.5v-487q0 -5 -3.5 -8.5t-8.5 -3.5h-91q-5 0 -8.5 3.5t-3.5 8.5v32q0 3 -2 4t-4 -2q-41 -53 -123 -53q-76 0 -127.5 44t-51.5 125v337q0 5 3.5 8.5t8.5 3.5h92q5 0 8.5 -3.5t3.5 -8.5v-304q0 -47 24.5 -75t68.5 -28
q45 0 72 28t27 75v304q0 5 3.5 8.5zM125 577.5q-2 4.5 2 10.5l76 105q5 7 14 7h105q9 0 14 -7l76 -105q3 -4 3 -8q0 -7 -10 -7h-70q-9 0 -14 8l-47 67q-2 2 -4 2t-3 -2l-47 -67q-5 -8 -14 -8h-71q-8 0 -10 4.5z" />
    <glyph glyph-name="udieresis" unicode="&#xfc;" 
d="M367.5 507.5q3.5 3.5 8.5 3.5h91q5 0 8.5 -3.5t3.5 -8.5v-487q0 -5 -3.5 -8.5t-8.5 -3.5h-91q-5 0 -8.5 3.5t-3.5 8.5v32q0 3 -2 4t-4 -2q-41 -53 -123 -53q-76 0 -127.5 44t-51.5 125v337q0 5 3.5 8.5t8.5 3.5h92q5 0 8.5 -3.5t3.5 -8.5v-304q0 -47 24.5 -75t68.5 -28
q45 0 72 28t27 75v304q0 5 3.5 8.5zM315 606q-20 20 -20 51t20 51t51 20t50.5 -20t19.5 -51t-20 -51t-50 -20q-31 0 -51 20zM125 606q-20 20 -20 51t20 51t51 20t50.5 -20t19.5 -51t-20 -51t-50 -20q-31 0 -51 20z" />
    <glyph glyph-name="yacute" unicode="&#xfd;" horiz-adv-x="489" 
d="M47 -195.5q-2 3.5 -2 8.5v72q0 5 3.5 8.5t8.5 3.5h1q41 1 64 8.5t38 28.5t27 63q1 2 0 6l-165 495q-1 2 -1 5q0 9 10 9h98q11 0 14 -10l100 -352q1 -3 3 -3t3 3l100 352q3 10 14 10h95q6 0 8.5 -3.5t0.5 -10.5l-176 -526q-25 -71 -49 -106t-65.5 -50t-117.5 -15h-7
q-3 0 -5 3.5zM188 586q-2 4 1 10l55 103q4 8 15 8h79q7 0 9.5 -4.5t-1.5 -10.5l-69 -102q-5 -8 -14 -8h-66q-7 0 -9 4z" />
    <glyph glyph-name="thorn" unicode="&#xfe;" horiz-adv-x="547" 
d="M499 256q0 -75 -11 -118q-18 -67 -68.5 -106.5t-117.5 -39.5q-77 0 -118 54q-2 2 -4 1.5t-2 -3.5v-232q0 -5 -3.5 -8.5t-8.5 -3.5h-92q-5 0 -8.5 3.5t-3.5 8.5v876q0 5 3.5 8.5t8.5 3.5h92q5 0 8.5 -3.5t3.5 -8.5v-216q0 -3 2 -4t4 2q39 49 114 49q69 0 118 -37.5
t68 -97.5q15 -46 15 -128zM376 198.5q2 18.5 2 57.5t-2 57.5t-8 33.5q-9 32 -34.5 52t-62.5 20q-35 0 -58.5 -18.5t-33.5 -48.5q-1 -2 -1 -6v-179q0 -4 1 -6q10 -31 33 -50t59 -19q37 0 63 20t34 52q6 16 8 34.5z" />
    <glyph glyph-name="ydieresis" unicode="&#xff;" horiz-adv-x="489" 
d="M47 -195.5q-2 3.5 -2 8.5v72q0 5 3.5 8.5t8.5 3.5h1q41 1 64 8.5t38 28.5t27 63q1 2 0 6l-165 495q-1 2 -1 5q0 9 10 9h98q11 0 14 -10l100 -352q1 -3 3 -3t3 3l100 352q3 10 14 10h95q6 0 8.5 -3.5t0.5 -10.5l-176 -526q-25 -71 -49 -106t-65.5 -50t-117.5 -15h-7
q-3 0 -5 3.5zM288 613q-20 20 -20 51t20 51t51 20t50.5 -20t19.5 -51t-20 -51t-50 -20q-31 0 -51 20zM98 613q-20 20 -20 51t20 51t51 20t50.5 -20t19.5 -51t-20 -51t-50 -20q-31 0 -51 20z" />
    <glyph glyph-name="Amacron" unicode="&#x100;" horiz-adv-x="648" 
d="M494 10l-33 107q-2 4 -5 4h-264q-3 0 -5 -4l-33 -107q-3 -10 -13 -10h-100q-6 0 -9 3.5t-1 10.5l217 676q3 10 13 10h125q10 0 13 -10l218 -676q1 -2 1 -5q0 -9 -11 -9h-100q-10 0 -13 10zM222 212h203q6 0 4 6l-103 335q-1 4 -3 4t-3 -4l-102 -335q-1 -6 4 -6z
M183.5 775.5q-3.5 3.5 -3.5 8.5v56q0 5 3.5 8.5t8.5 3.5h261q5 0 8.5 -3.5t3.5 -8.5v-56q0 -5 -3.5 -8.5t-8.5 -3.5h-261q-5 0 -8.5 3.5z" />
    <glyph glyph-name="amacron" unicode="&#x101;" horiz-adv-x="522" 
d="M368 497q48 -22 74 -60.5t26 -87.5v-337q0 -5 -3.5 -8.5t-8.5 -3.5h-92q-5 0 -8.5 3.5t-3.5 8.5v32q0 3 -2 3.5t-4 -1.5q-49 -54 -142 -54q-75 0 -123.5 38t-48.5 113q0 78 54.5 121.5t153.5 43.5h107q5 0 5 5v24q0 39 -23 60.5t-69 21.5q-38 0 -61.5 -13.5t-29.5 -37.5
q-3 -12 -14 -10l-97 12q-5 1 -8.5 3.5t-2.5 6.5q8 61 65.5 100t144.5 39q63 0 111 -22zM317 110q35 26 35 66v47q0 5 -5 5h-84q-53 0 -83.5 -20t-30.5 -57q0 -32 23.5 -49.5t60.5 -17.5q49 0 84 26zM122.5 586.5q-3.5 3.5 -3.5 8.5v56q0 5 3.5 8.5t8.5 3.5h261q5 0 8.5 -3.5
t3.5 -8.5v-56q0 -5 -3.5 -8.5t-8.5 -3.5h-261q-5 0 -8.5 3.5z" />
    <glyph glyph-name="Abreve" unicode="&#x102;" horiz-adv-x="648" 
d="M494 10l-33 107q-2 4 -5 4h-264q-3 0 -5 -4l-33 -107q-3 -10 -13 -10h-100q-6 0 -9 3.5t-1 10.5l217 676q3 10 13 10h125q10 0 13 -10l218 -676q1 -2 1 -5q0 -9 -11 -9h-100q-10 0 -13 10zM222 212h203q6 0 4 6l-103 335q-1 4 -3 4t-3 -4l-102 -335q-1 -6 4 -6z
M222 778.5q-41 31.5 -45 80.5v2q0 10 11 10h53q10 0 12 -11q5 -23 24 -37t45 -14q27 0 46 14t24 37q2 11 12 11h52q12 0 12 -11q-5 -49 -45.5 -81t-100.5 -32q-59 0 -100 31.5z" />
    <glyph glyph-name="abreve" unicode="&#x103;" horiz-adv-x="522" 
d="M368 497q48 -22 74 -60.5t26 -87.5v-337q0 -5 -3.5 -8.5t-8.5 -3.5h-92q-5 0 -8.5 3.5t-3.5 8.5v32q0 3 -2 3.5t-4 -1.5q-49 -54 -142 -54q-75 0 -123.5 38t-48.5 113q0 78 54.5 121.5t153.5 43.5h107q5 0 5 5v24q0 39 -23 60.5t-69 21.5q-38 0 -61.5 -13.5t-29.5 -37.5
q-3 -12 -14 -10l-97 12q-5 1 -8.5 3.5t-2.5 6.5q8 61 65.5 100t144.5 39q63 0 111 -22zM317 110q35 26 35 66v47q0 5 -5 5h-84q-53 0 -83.5 -20t-30.5 -57q0 -32 23.5 -49.5t60.5 -17.5q49 0 84 26zM160 589.5q-41 31.5 -45 80.5v2q0 10 11 10h53q10 0 12 -11q5 -23 24 -37
t45 -14q27 0 46 14t24 37q2 11 12 11h52q12 0 12 -11q-5 -49 -45.5 -81t-100.5 -32q-59 0 -100 31.5z" />
    <glyph glyph-name="Aogonek" unicode="&#x104;" horiz-adv-x="648" 
d="M494 10l-33 107q-2 4 -5 4h-264q-3 0 -5 -4l-33 -107q-3 -10 -13 -10h-100q-6 0 -9 3.5t-1 10.5l217 676q3 10 13 10h125q10 0 13 -10l218 -676q1 -2 1 -5q0 -9 -11 -9h-100q-10 0 -13 10zM222 212h203q6 0 4 6l-103 335q-1 4 -3 4t-3 -4l-102 -335q-1 -6 4 -6zM633 -171
q0 -7 -8 -11q-24 -8 -53 -8q-33 0 -58.5 14.5t-34.5 47.5q-3 12 -3 24q0 52 57 99q6 5 15 5h49q10 0 10 -6q0 -5 -5 -9q-48 -38 -48 -72q0 -18 11 -27t29 -9q8 0 19 3l5 1q9 0 10 -10l5 -38v-4z" />
    <glyph glyph-name="aogonek" unicode="&#x105;" horiz-adv-x="522" 
d="M465 -119q8 0 9 -10l6 -38v-4q0 -8 -8 -11q-24 -8 -53 -8q-34 0 -59.5 14.5t-33.5 47.5q-3 12 -3 24q0 52 56 98q3 2 2 4t-4 2h-13q-5 0 -8.5 3.5t-3.5 8.5v32q0 3 -2 3.5t-4 -1.5q-49 -54 -142 -54q-75 0 -123.5 38t-48.5 113q0 78 54.5 121.5t153.5 43.5h107q5 0 5 5
v24q0 39 -23 60.5t-69 21.5q-38 0 -61.5 -13.5t-29.5 -37.5q-3 -12 -14 -10l-97 12q-5 1 -8.5 4.5t-2.5 9.5q9 59 67 97t143 38q63 0 111 -22t74 -60.5t26 -87.5v-340q0 -8 -5 -12q-1 -1 -2.5 -1.5t-2.5 -2.5q-57 -44 -57 -79q0 -19 10.5 -28t28.5 -9q10 0 20 3zM317 110
q35 26 35 66v47q0 5 -5 5h-84q-53 0 -83.5 -20t-30.5 -57q0 -32 23.5 -49.5t60.5 -17.5q49 0 84 26z" />
    <glyph glyph-name="Cacute" unicode="&#x106;" horiz-adv-x="608" 
d="M175 21.5q-57 29.5 -88 82.5t-31 123v247q0 70 31 123t88 82t132 29q74 0 131 -28t88 -79t31 -118q0 -5 -3.5 -8.5t-8.5 -3.5l-92 -5q-12 0 -12 11q0 59 -36.5 95t-97.5 36t-98 -36t-37 -95v-255q0 -58 37 -94t98 -36t97.5 35.5t36.5 94.5q0 11 12 11l92 -4q5 0 8.5 -3
t3.5 -7q0 -68 -31 -119.5t-88 -79.5t-131 -28q-75 0 -132 29.5zM251 768q-2 4 1 10l55 103q4 8 15 8h79q7 0 9.5 -4.5t-1.5 -10.5l-69 -102q-5 -8 -14 -8h-66q-7 0 -9 4z" />
    <glyph glyph-name="cacute" unicode="&#x107;" horiz-adv-x="531" 
d="M142 31.5q-56 39.5 -78 106.5q-16 45 -16 120q0 72 16 118q21 66 77.5 104.5t133.5 38.5q78 0 136 -39t77 -98q5 -16 7 -32v-2q0 -10 -11 -12l-90 -13h-2q-9 0 -12 10q0 5 -1 8q-2 8 -4 14q-9 28 -36 46t-64 18q-38 0 -64.5 -19.5t-35.5 -53.5q-10 -32 -10 -89
q0 -55 9 -89q10 -35 36 -55.5t65 -20.5q38 0 65.5 19.5t35.5 52.5q1 2 1 5q1 1 1 3q3 12 14 10l90 -14q5 -1 8.5 -4.5t2.5 -9.5q-3 -16 -5 -23q-19 -64 -77 -101.5t-136 -37.5q-77 0 -133 39.5zM217 579q-2 4 1 10l55 103q4 8 15 8h79q7 0 9.5 -4.5t-1.5 -10.5l-69 -102
q-5 -8 -14 -8h-66q-7 0 -9 4z" />
    <glyph glyph-name="Ccircumflex" unicode="&#x108;" horiz-adv-x="608" 
d="M175 21.5q-57 29.5 -88 82.5t-31 123v247q0 70 31 123t88 82t132 29q74 0 131 -28t88 -79t31 -118q0 -5 -3.5 -8.5t-8.5 -3.5l-92 -5q-12 0 -12 11q0 59 -36.5 95t-97.5 36t-98 -36t-37 -95v-255q0 -58 37 -94t98 -36t97.5 35.5t36.5 94.5q0 11 12 11l92 -4q5 0 8.5 -3
t3.5 -7q0 -68 -31 -119.5t-88 -79.5t-131 -28q-75 0 -132 29.5zM161 766.5q-2 4.5 2 10.5l76 105q5 7 14 7h105q9 0 14 -7l76 -105q3 -4 3 -8q0 -7 -10 -7h-70q-9 0 -14 8l-47 67q-2 2 -4 2t-3 -2l-47 -67q-5 -8 -14 -8h-71q-8 0 -10 4.5z" />
    <glyph glyph-name="ccircumflex" unicode="&#x109;" horiz-adv-x="531" 
d="M142 31.5q-56 39.5 -78 106.5q-16 45 -16 120q0 72 16 118q21 66 77.5 104.5t133.5 38.5q78 0 136 -39t77 -98q5 -16 7 -32v-2q0 -10 -11 -12l-90 -13h-2q-9 0 -12 10q0 5 -1 8q-2 8 -4 14q-9 28 -36 46t-64 18q-38 0 -64.5 -19.5t-35.5 -53.5q-10 -32 -10 -89
q0 -55 9 -89q10 -35 36 -55.5t65 -20.5q38 0 65.5 19.5t35.5 52.5q1 2 1 5q1 1 1 3q3 12 14 10l90 -14q5 -1 8.5 -4.5t2.5 -9.5q-3 -16 -5 -23q-19 -64 -77 -101.5t-136 -37.5q-77 0 -133 39.5zM128 577.5q-2 4.5 2 10.5l76 105q5 7 14 7h105q9 0 14 -7l76 -105q3 -4 3 -8
q0 -7 -10 -7h-70q-9 0 -14 8l-47 67q-2 2 -4 2t-3 -2l-47 -67q-5 -8 -14 -8h-71q-8 0 -10 4.5z" />
    <glyph glyph-name="Cdotaccent" unicode="&#x10a;" horiz-adv-x="608" 
d="M175 21.5q-57 29.5 -88 82.5t-31 123v247q0 70 31 123t88 82t132 29q74 0 131 -28t88 -79t31 -118q0 -5 -3.5 -8.5t-8.5 -3.5l-92 -5q-12 0 -12 11q0 59 -36.5 95t-97.5 36t-98 -36t-37 -95v-255q0 -58 37 -94t98 -36t97.5 35.5t36.5 94.5q0 11 12 11l92 -4q5 0 8.5 -3
t3.5 -7q0 -68 -31 -119.5t-88 -79.5t-131 -28q-75 0 -132 29.5zM256 790q-20 20 -20 51t20 51t51 20t50.5 -20t19.5 -51t-20 -51t-50 -20q-31 0 -51 20z" />
    <glyph glyph-name="cdotaccent" unicode="&#x10b;" horiz-adv-x="531" 
d="M142 31.5q-56 39.5 -78 106.5q-16 45 -16 120q0 72 16 118q21 66 77.5 104.5t133.5 38.5q78 0 136 -39t77 -98q5 -16 7 -32v-2q0 -10 -11 -12l-90 -13h-2q-9 0 -12 10q0 5 -1 8q-2 8 -4 14q-9 28 -36 46t-64 18q-38 0 -64.5 -19.5t-35.5 -53.5q-10 -32 -10 -89
q0 -55 9 -89q10 -35 36 -55.5t65 -20.5q38 0 65.5 19.5t35.5 52.5q1 2 1 5q1 1 1 3q3 12 14 10l90 -14q5 -1 8.5 -4.5t2.5 -9.5q-3 -16 -5 -23q-19 -64 -77 -101.5t-136 -37.5q-77 0 -133 39.5zM222 601q-20 20 -20 51t20 51t51 20t50.5 -20t19.5 -51t-20 -51t-50 -20
q-31 0 -51 20z" />
    <glyph glyph-name="Ccaron" unicode="&#x10c;" horiz-adv-x="608" 
d="M175 21.5q-57 29.5 -88 82.5t-31 123v247q0 70 31 123t88 82t132 29q74 0 131 -28t88 -79t31 -118q0 -5 -3.5 -8.5t-8.5 -3.5l-92 -5q-12 0 -12 11q0 59 -36.5 95t-97.5 36t-98 -36t-37 -95v-255q0 -58 37 -94t98 -36t97.5 35.5t36.5 94.5q0 11 12 11l92 -4q5 0 8.5 -3
t3.5 -7q0 -68 -31 -119.5t-88 -79.5t-131 -28q-75 0 -132 29.5zM165 881q0 8 11 8h71q9 0 14 -8l47 -68q2 -2 4 -2t3 2l47 68q5 8 14 8h70q10 0 10 -7q0 -3 -3 -8l-76 -105q-5 -7 -14 -7h-105q-9 0 -14 7l-76 105q-3 5 -3 7z" />
    <glyph glyph-name="ccaron" unicode="&#x10d;" horiz-adv-x="531" 
d="M142 31.5q-56 39.5 -78 106.5q-16 45 -16 120q0 72 16 118q21 66 77.5 104.5t133.5 38.5q78 0 136 -39t77 -98q5 -16 7 -32v-2q0 -10 -11 -12l-90 -13h-2q-9 0 -12 10q0 5 -1 8q-2 8 -4 14q-9 28 -36 46t-64 18q-38 0 -64.5 -19.5t-35.5 -53.5q-10 -32 -10 -89
q0 -55 9 -89q10 -35 36 -55.5t65 -20.5q38 0 65.5 19.5t35.5 52.5q1 2 1 5q1 1 1 3q3 12 14 10l90 -14q5 -1 8.5 -4.5t2.5 -9.5q-3 -16 -5 -23q-19 -64 -77 -101.5t-136 -37.5q-77 0 -133 39.5zM132 692q0 8 11 8h71q9 0 14 -8l47 -68q2 -2 4 -2t3 2l47 68q5 8 14 8h70
q10 0 10 -7q0 -3 -3 -8l-76 -105q-5 -7 -14 -7h-105q-9 0 -14 7l-76 105q-3 5 -3 7z" />
    <glyph glyph-name="Dcaron" unicode="&#x10e;" horiz-adv-x="618" 
d="M76.5 3.5q-3.5 3.5 -3.5 8.5v676q0 5 3.5 8.5t8.5 3.5h244q71 0 125 -25t83.5 -71.5t29.5 -108.5v-290q0 -62 -29.5 -108.5t-83.5 -71.5t-125 -25h-244q-5 0 -8.5 3.5zM194 100h140q53 0 84.5 33.5t32.5 89.5v253q0 57 -32 90.5t-86 33.5h-139q-5 0 -5 -5v-490q0 -5 5 -5
zM162 879q0 8 11 8h71q9 0 14 -8l47 -68q2 -2 4 -2t3 2l47 68q5 8 14 8h70q10 0 10 -7q0 -3 -3 -8l-76 -105q-5 -7 -14 -7h-105q-9 0 -14 7l-76 105q-3 5 -3 7z" />
    <glyph glyph-name="dcaron" unicode="&#x10f;" horiz-adv-x="559" 
d="M382.5 696.5q3.5 3.5 8.5 3.5h92q5 0 8.5 -3.5t3.5 -8.5v-676q0 -5 -3.5 -8.5t-8.5 -3.5h-92q-5 0 -8.5 3.5t-3.5 8.5v30q0 3 -2 4t-4 -2q-44 -52 -115 -52t-120 37t-71 103q-18 56 -18 125q0 71 17 122q22 66 71 103t123 37q69 0 113 -50q2 -2 4 -1.5t2 3.5v217
q0 5 3.5 8.5zM378 256q0 78 -25 119q-27 44 -76 44q-51 0 -80 -42q-30 -44 -30 -122q0 -70 24 -115q28 -48 85 -48q51 0 79 48q23 41 23 116zM525 579q-2 4 1 10l55 103q4 8 15 8h79q7 0 9.5 -4.5t-1.5 -10.5l-69 -102q-5 -8 -14 -8h-66q-7 0 -9 4z" />
    <glyph glyph-name="Dcroat" unicode="&#x110;" horiz-adv-x="674" 
d="M511 675q54 -25 83.5 -71.5t29.5 -108.5v-290q0 -62 -29.5 -108.5t-83.5 -71.5t-126 -25h-244q-5 0 -8.5 3.5t-3.5 8.5v305q0 5 -5 5h-39q-5 0 -8.5 3.5t-3.5 8.5v56q0 5 3.5 8.5t8.5 3.5h39q5 0 5 5v281q0 5 3.5 8.5t8.5 3.5h244q72 0 126 -25zM508 476q0 57 -32 90.5
t-87 33.5h-139q-5 0 -5 -5v-188q0 -5 5 -5h92q5 0 8.5 -3.5t3.5 -8.5v-56q0 -5 -3.5 -8.5t-8.5 -3.5h-92q-5 0 -5 -5v-212q0 -5 5 -5h140q53 0 84.5 33.5t33.5 89.5v253z" />
    <glyph glyph-name="dcroat" unicode="&#x111;" horiz-adv-x="559" 
d="M550.5 631.5q3.5 -3.5 3.5 -8.5v-48q0 -5 -3.5 -8.5t-8.5 -3.5h-42q-5 0 -5 -5v-546q0 -5 -3.5 -8.5t-8.5 -3.5h-92q-5 0 -8.5 3.5t-3.5 8.5v30q0 3 -2 4t-4 -2q-44 -52 -115 -52t-120 37t-71 103q-18 56 -18 125q0 71 17 122q22 66 71 103t123 37q69 0 113 -50
q2 -2 4 -1.5t2 3.5v87q0 5 -5 5h-149q-5 0 -8.5 3.5t-3.5 8.5v48q0 5 3.5 8.5t8.5 3.5h149q5 0 5 5v48q0 5 3.5 8.5t8.5 3.5h92q5 0 8.5 -3.5t3.5 -8.5v-48q0 -5 5 -5h42q5 0 8.5 -3.5zM378 256q0 78 -25 119q-27 44 -76 44q-51 0 -80 -42q-30 -44 -30 -122q0 -70 24 -115
q28 -48 85 -48q51 0 79 48q23 41 23 116z" />
    <glyph glyph-name="Emacron" unicode="&#x112;" horiz-adv-x="592" 
d="M543.5 603.5q-3.5 -3.5 -8.5 -3.5h-341q-5 0 -5 -5v-187q0 -5 5 -5h229q5 0 8.5 -3.5t3.5 -8.5v-76q0 -5 -3.5 -8.5t-8.5 -3.5h-229q-5 0 -5 -5v-193q0 -5 5 -5h341q5 0 8.5 -3.5t3.5 -8.5v-76q0 -5 -3.5 -8.5t-8.5 -3.5h-450q-5 0 -8.5 3.5t-3.5 8.5v676q0 5 3.5 8.5
t8.5 3.5h450q5 0 8.5 -3.5t3.5 -8.5v-76q0 -5 -3.5 -8.5zM168.5 775.5q-3.5 3.5 -3.5 8.5v56q0 5 3.5 8.5t8.5 3.5h261q5 0 8.5 -3.5t3.5 -8.5v-56q0 -5 -3.5 -8.5t-8.5 -3.5h-261q-5 0 -8.5 3.5z" />
    <glyph glyph-name="emacron" unicode="&#x113;" horiz-adv-x="540" 
d="M497 257l-1 -31q0 -12 -12 -12h-313q-5 0 -5 -5q3 -33 9 -45q24 -72 117 -73q68 0 108 56q4 6 10 6q4 0 7 -3l62 -51q9 -7 3 -16q-31 -44 -82.5 -68t-114.5 -24q-78 0 -132.5 35t-79.5 98q-23 54 -23 150q0 58 12 94q20 70 75.5 110.5t133.5 40.5q197 0 222 -206
q4 -25 4 -56zM209.5 400.5q-24.5 -18.5 -34.5 -51.5q-6 -17 -8 -44q-2 -5 4 -5h203q5 0 5 5q-2 25 -6 38q-9 36 -35.5 56t-66.5 20q-37 0 -61.5 -18.5zM130.5 606.5q-3.5 3.5 -3.5 8.5v56q0 5 3.5 8.5t8.5 3.5h261q5 0 8.5 -3.5t3.5 -8.5v-56q0 -5 -3.5 -8.5t-8.5 -3.5h-261
q-5 0 -8.5 3.5z" />
    <glyph glyph-name="Edotaccent" unicode="&#x116;" horiz-adv-x="592" 
d="M543.5 603.5q-3.5 -3.5 -8.5 -3.5h-341q-5 0 -5 -5v-187q0 -5 5 -5h229q5 0 8.5 -3.5t3.5 -8.5v-76q0 -5 -3.5 -8.5t-8.5 -3.5h-229q-5 0 -5 -5v-193q0 -5 5 -5h341q5 0 8.5 -3.5t3.5 -8.5v-76q0 -5 -3.5 -8.5t-8.5 -3.5h-450q-5 0 -8.5 3.5t-3.5 8.5v676q0 5 3.5 8.5
t8.5 3.5h450q5 0 8.5 -3.5t3.5 -8.5v-76q0 -5 -3.5 -8.5zM256 790q-20 20 -20 51t20 51t51 20t50.5 -20t19.5 -51t-20 -51t-50 -20q-31 0 -51 20z" />
    <glyph glyph-name="edotaccent" unicode="&#x117;" horiz-adv-x="540" 
d="M497 257l-1 -31q0 -12 -12 -12h-313q-5 0 -5 -5q3 -33 9 -45q24 -72 117 -73q68 0 108 56q4 6 10 6q4 0 7 -3l62 -51q9 -7 3 -16q-31 -44 -82.5 -68t-114.5 -24q-78 0 -132.5 35t-79.5 98q-23 54 -23 150q0 58 12 94q20 70 75.5 110.5t133.5 40.5q197 0 222 -206
q4 -25 4 -56zM209.5 400.5q-24.5 -18.5 -34.5 -51.5q-6 -17 -8 -44q-2 -5 4 -5h203q5 0 5 5q-2 25 -6 38q-9 36 -35.5 56t-66.5 20q-37 0 -61.5 -18.5zM219 601q-20 20 -20 51t20 51t51 20t50.5 -20t19.5 -51t-20 -51t-50 -20q-31 0 -51 20z" />
    <glyph glyph-name="Eogonek" unicode="&#x118;" horiz-adv-x="592" 
d="M543.5 603.5q-3.5 -3.5 -8.5 -3.5h-341q-5 0 -5 -5v-187q0 -5 5 -5h229q5 0 8.5 -3.5t3.5 -8.5v-76q0 -5 -3.5 -8.5t-8.5 -3.5h-229q-5 0 -5 -5v-193q0 -5 5 -5h341q5 0 8.5 -3.5t3.5 -8.5v-76q0 -5 -3.5 -8.5t-8.5 -3.5h-182q-2 0 -6 -2q-48 -40 -48 -71q0 -19 11 -29
t29 -10q9 0 18 3q3 1 7 1q7 0 8 -9l5 -38v-4q0 -7 -8 -11q-24 -8 -53 -8q-33 0 -58.5 14.5t-34.5 47.5q-3 12 -3 23q0 45 43 87q3 2 2 4t-4 2h-176q-5 0 -8.5 3.5t-3.5 8.5v676q0 5 3.5 8.5t8.5 3.5h450q5 0 8.5 -3.5t3.5 -8.5v-76q0 -5 -3.5 -8.5z" />
    <glyph glyph-name="eogonek" unicode="&#x119;" horiz-adv-x="540" 
d="M497 257l-1 -31q0 -12 -12 -12h-313q-5 0 -5 -5q3 -33 9 -45q24 -72 117 -73q68 0 108 56q4 6 10 6q4 0 7 -3l62 -51q9 -7 3 -16q-26 -37 -67.5 -60t-93.5 -30q-2 0 -6 -2q-49 -39 -49 -73q0 -19 11 -29t29 -10q9 0 18 3q3 1 7 1q7 0 8 -9l5 -38v-4q0 -7 -8 -11
q-24 -8 -54 -8q-33 0 -58 14.5t-34 47.5q-3 10 -3 22q0 48 48 92q2 2 2 4t-4 2q-58 11 -98.5 44t-61.5 85q-23 54 -23 150q0 58 12 94q20 70 75.5 110.5t133.5 40.5q197 0 222 -206q4 -25 4 -56zM209.5 400.5q-24.5 -18.5 -34.5 -51.5q-6 -17 -8 -44q-2 -5 4 -5h203q5 0 5 5
q-2 25 -6 38q-9 36 -35.5 56t-66.5 20q-37 0 -61.5 -18.5z" />
    <glyph glyph-name="Ecaron" unicode="&#x11a;" horiz-adv-x="592" 
d="M543.5 603.5q-3.5 -3.5 -8.5 -3.5h-341q-5 0 -5 -5v-187q0 -5 5 -5h229q5 0 8.5 -3.5t3.5 -8.5v-76q0 -5 -3.5 -8.5t-8.5 -3.5h-229q-5 0 -5 -5v-193q0 -5 5 -5h341q5 0 8.5 -3.5t3.5 -8.5v-76q0 -5 -3.5 -8.5t-8.5 -3.5h-450q-5 0 -8.5 3.5t-3.5 8.5v676q0 5 3.5 8.5
t8.5 3.5h450q5 0 8.5 -3.5t3.5 -8.5v-76q0 -5 -3.5 -8.5zM165 881q0 8 11 8h71q9 0 14 -8l47 -68q2 -2 4 -2t3 2l47 68q5 8 14 8h70q10 0 10 -7q0 -3 -3 -8l-76 -105q-5 -7 -14 -7h-105q-9 0 -14 7l-76 105q-3 5 -3 7z" />
    <glyph glyph-name="ecaron" unicode="&#x11b;" horiz-adv-x="540" 
d="M497 257l-1 -31q0 -12 -12 -12h-313q-5 0 -5 -5q3 -33 9 -45q24 -72 117 -73q68 0 108 56q4 6 10 6q4 0 7 -3l62 -51q9 -7 3 -16q-31 -44 -82.5 -68t-114.5 -24q-78 0 -132.5 35t-79.5 98q-23 54 -23 150q0 58 12 94q20 70 75.5 110.5t133.5 40.5q197 0 222 -206
q4 -25 4 -56zM209.5 400.5q-24.5 -18.5 -34.5 -51.5q-6 -17 -8 -44q-2 -5 4 -5h203q5 0 5 5q-2 25 -6 38q-9 36 -35.5 56t-66.5 20q-37 0 -61.5 -18.5zM128 691q0 8 11 8h71q9 0 14 -8l47 -68q2 -2 4 -2t3 2l47 68q5 8 14 8h70q10 0 10 -7q0 -3 -3 -8l-76 -105q-5 -7 -14 -7
h-105q-9 0 -14 7l-76 105q-3 5 -3 7z" />
    <glyph glyph-name="Gcircumflex" unicode="&#x11c;" horiz-adv-x="612" 
d="M175 21.5q-57 29.5 -88 83.5t-31 124v242q0 71 31 124.5t88 83t132 29.5q74 0 130.5 -29t87.5 -79t31 -113v-8q0 -5 -3.5 -8.5t-8.5 -3.5h-91q-5 0 -8.5 3.5t-3.5 8.5v5q0 54 -36.5 89t-97.5 35t-98 -36.5t-37 -96.5v-250q0 -60 39 -96.5t101 -36.5q60 0 94.5 31.5
t34.5 86.5v62q0 5 -5 5h-123q-5 0 -8.5 3.5t-3.5 8.5v74q0 5 3.5 8.5t8.5 3.5h231q5 0 8.5 -3.5t3.5 -8.5v-128q0 -115 -67.5 -179t-181.5 -64q-75 0 -132 29.5zM160 770.5q-2 4.5 2 10.5l76 105q5 7 14 7h105q9 0 14 -7l76 -105q3 -4 3 -8q0 -7 -10 -7h-70q-9 0 -14 8
l-47 67q-2 2 -4 2t-3 -2l-47 -67q-5 -8 -14 -8h-71q-8 0 -10 4.5z" />
    <glyph glyph-name="gcircumflex" unicode="&#x11d;" horiz-adv-x="548" 
d="M378.5 507.5q3.5 3.5 8.5 3.5h92q5 0 8.5 -3.5t3.5 -8.5v-465q0 -125 -71.5 -178.5t-187.5 -53.5q-31 0 -61 3q-11 1 -11 13l3 82q0 11 14 11q29 -3 52 -3q75 0 110.5 29.5t35.5 99.5v8q0 3 -2 3.5t-4 -1.5q-41 -44 -116 -44q-65 0 -119 33t-75 101q-13 47 -13 121
q0 83 16 127q20 61 69 97.5t115 36.5q79 0 123 -46q2 -3 4 -2t2 4v24q0 5 3.5 8.5zM373.5 202.5q1.5 17.5 1.5 56.5q0 38 -1.5 54.5t-6.5 32.5q-8 33 -32.5 53t-62.5 20q-36 0 -61 -20t-36 -53q-12 -28 -12 -88q0 -62 10 -87q10 -32 36.5 -52.5t63.5 -20.5q39 0 63 20t32 52
q4 15 5.5 32.5zM139 577.5q-2 4.5 2 10.5l76 105q5 7 14 7h105q9 0 14 -7l76 -105q3 -4 3 -8q0 -7 -10 -7h-70q-9 0 -14 8l-47 67q-2 2 -4 2t-3 -2l-47 -67q-5 -8 -14 -8h-71q-8 0 -10 4.5z" />
    <glyph glyph-name="Gbreve" unicode="&#x11e;" horiz-adv-x="612" 
d="M175 21.5q-57 29.5 -88 83.5t-31 124v242q0 71 31 124.5t88 83t132 29.5q74 0 130.5 -29t87.5 -79t31 -113v-8q0 -5 -3.5 -8.5t-8.5 -3.5h-91q-5 0 -8.5 3.5t-3.5 8.5v5q0 54 -36.5 89t-97.5 35t-98 -36.5t-37 -96.5v-250q0 -60 39 -96.5t101 -36.5q60 0 94.5 31.5
t34.5 86.5v62q0 5 -5 5h-123q-5 0 -8.5 3.5t-3.5 8.5v74q0 5 3.5 8.5t8.5 3.5h231q5 0 8.5 -3.5t3.5 -8.5v-128q0 -115 -67.5 -179t-181.5 -64q-75 0 -132 29.5zM206 783.5q-41 31.5 -45 80.5v2q0 10 11 10h53q10 0 12 -11q5 -23 24 -37t45 -14q27 0 46 14t24 37q2 11 12 11
h52q12 0 12 -11q-5 -49 -45.5 -81t-100.5 -32q-59 0 -100 31.5z" />
    <glyph glyph-name="gbreve" unicode="&#x11f;" horiz-adv-x="548" 
d="M378.5 507.5q3.5 3.5 8.5 3.5h92q5 0 8.5 -3.5t3.5 -8.5v-465q0 -125 -71.5 -178.5t-187.5 -53.5q-31 0 -61 3q-11 1 -11 13l3 82q0 11 14 11q29 -3 52 -3q75 0 110.5 29.5t35.5 99.5v8q0 3 -2 3.5t-4 -1.5q-41 -44 -116 -44q-65 0 -119 33t-75 101q-13 47 -13 121
q0 83 16 127q20 61 69 97.5t115 36.5q79 0 123 -46q2 -3 4 -2t2 4v24q0 5 3.5 8.5zM373.5 202.5q1.5 17.5 1.5 56.5q0 38 -1.5 54.5t-6.5 32.5q-8 33 -32.5 53t-62.5 20q-36 0 -61 -20t-36 -53q-12 -28 -12 -88q0 -62 10 -87q10 -32 36.5 -52.5t63.5 -20.5q39 0 63 20t32 52
q4 15 5.5 32.5zM184 589.5q-41 31.5 -45 80.5v2q0 10 11 10h53q10 0 12 -11q5 -23 24 -37t45 -14q27 0 46 14t24 37q2 11 12 11h52q12 0 12 -11q-5 -49 -45.5 -81t-100.5 -32q-59 0 -100 31.5z" />
    <glyph glyph-name="Gdotaccent" unicode="&#x120;" horiz-adv-x="612" 
d="M175 21.5q-57 29.5 -88 83.5t-31 124v242q0 71 31 124.5t88 83t132 29.5q74 0 130.5 -29t87.5 -79t31 -113v-8q0 -5 -3.5 -8.5t-8.5 -3.5h-91q-5 0 -8.5 3.5t-3.5 8.5v5q0 54 -36.5 89t-97.5 35t-98 -36.5t-37 -96.5v-250q0 -60 39 -96.5t101 -36.5q60 0 94.5 31.5
t34.5 86.5v62q0 5 -5 5h-123q-5 0 -8.5 3.5t-3.5 8.5v74q0 5 3.5 8.5t8.5 3.5h231q5 0 8.5 -3.5t3.5 -8.5v-128q0 -115 -67.5 -179t-181.5 -64q-75 0 -132 29.5zM255 794q-20 20 -20 51t20 51t51 20t50.5 -20t19.5 -51t-20 -51t-50 -20q-31 0 -51 20z" />
    <glyph glyph-name="gdotaccent" unicode="&#x121;" horiz-adv-x="548" 
d="M378.5 507.5q3.5 3.5 8.5 3.5h92q5 0 8.5 -3.5t3.5 -8.5v-465q0 -125 -71.5 -178.5t-187.5 -53.5q-31 0 -61 3q-11 1 -11 13l3 82q0 11 14 11q29 -3 52 -3q75 0 110.5 29.5t35.5 99.5v8q0 3 -2 3.5t-4 -1.5q-41 -44 -116 -44q-65 0 -119 33t-75 101q-13 47 -13 121
q0 83 16 127q20 61 69 97.5t115 36.5q79 0 123 -46q2 -3 4 -2t2 4v24q0 5 3.5 8.5zM373.5 202.5q1.5 17.5 1.5 56.5q0 38 -1.5 54.5t-6.5 32.5q-8 33 -32.5 53t-62.5 20q-36 0 -61 -20t-36 -53q-12 -28 -12 -88q0 -62 10 -87q10 -32 36.5 -52.5t63.5 -20.5q39 0 63 20t32 52
q4 15 5.5 32.5zM234 601q-20 20 -20 51t20 51t51 20t50.5 -20t19.5 -51t-20 -51t-50 -20q-31 0 -51 20z" />
    <glyph glyph-name="uni0122" unicode="&#x122;" horiz-adv-x="612" 
d="M175 21.5q-57 29.5 -88 83.5t-31 124v242q0 71 31 124.5t88 83t132 29.5q74 0 130.5 -29t87.5 -79t31 -113v-8q0 -5 -3.5 -8.5t-8.5 -3.5h-91q-5 0 -8.5 3.5t-3.5 8.5v5q0 54 -36.5 89t-97.5 35t-98 -36.5t-37 -96.5v-250q0 -60 39 -96.5t101 -36.5q60 0 94.5 31.5
t34.5 86.5v62q0 5 -5 5h-123q-5 0 -8.5 3.5t-3.5 8.5v74q0 5 3.5 8.5t8.5 3.5h231q5 0 8.5 -3.5t3.5 -8.5v-128q0 -115 -67.5 -179t-181.5 -64q-75 0 -132 29.5zM213 -184q-2 4 1 10l55 103q4 8 15 8h79q7 0 9.5 -4.5t-1.5 -10.5l-69 -102q-5 -8 -14 -8h-66q-7 0 -9 4z" />
    <glyph glyph-name="uni0123" unicode="&#x123;" horiz-adv-x="548" 
d="M378 687q2 -4 -1 -10l-55 -103q-4 -8 -15 -8h-78q-7 0 -9.5 4.5t1.5 10.5l69 102q5 8 14 8h65q7 0 9 -4zM378.5 507.5q3.5 3.5 8.5 3.5h92q5 0 8.5 -3.5t3.5 -8.5v-465q0 -125 -71.5 -178.5t-187.5 -53.5q-31 0 -61 3q-11 1 -11 13l3 82q0 11 14 11q29 -3 52 -3
q75 0 110.5 29.5t35.5 99.5v8q0 3 -2 3.5t-4 -1.5q-41 -44 -116 -44q-65 0 -119 33t-75 101q-13 47 -13 121q0 83 16 127q20 61 69 97.5t115 36.5q79 0 123 -46q2 -3 4 -2t2 4v24q0 5 3.5 8.5zM373.5 202.5q1.5 17.5 1.5 56.5q0 38 -1.5 54.5t-6.5 32.5q-8 33 -32.5 53
t-62.5 20q-36 0 -61 -20t-36 -53q-12 -28 -12 -88q0 -62 10 -87q10 -32 36.5 -52.5t63.5 -20.5q39 0 63 20t32 52q4 15 5.5 32.5z" />
    <glyph glyph-name="Hcircumflex" unicode="&#x124;" horiz-adv-x="637" 
d="M457.5 696.5q3.5 3.5 8.5 3.5h92q5 0 8.5 -3.5t3.5 -8.5v-676q0 -5 -3.5 -8.5t-8.5 -3.5h-92q-5 0 -8.5 3.5t-3.5 8.5v286q0 5 -5 5h-255q-5 0 -5 -5v-286q0 -5 -3.5 -8.5t-8.5 -3.5h-92q-5 0 -8.5 3.5t-3.5 8.5v676q0 5 3.5 8.5t8.5 3.5h92q5 0 8.5 -3.5t3.5 -8.5v-280
q0 -5 5 -5h255q5 0 5 5v280q0 5 3.5 8.5zM177 767.5q-2 4.5 2 10.5l76 105q5 7 14 7h105q9 0 14 -7l76 -105q3 -4 3 -8q0 -7 -10 -7h-70q-9 0 -14 8l-47 67q-2 2 -4 2t-3 -2l-47 -67q-5 -8 -14 -8h-71q-8 0 -10 4.5z" />
    <glyph glyph-name="hcircumflex" unicode="&#x125;" 
d="M436.5 471q48.5 -48 48.5 -131v-328q0 -5 -3.5 -8.5t-8.5 -3.5h-92q-5 0 -8.5 3.5t-3.5 8.5v304q0 46 -26 74.5t-69 28.5t-69.5 -28t-26.5 -74v-305q0 -5 -3.5 -8.5t-8.5 -3.5h-92q-5 0 -8.5 3.5t-3.5 8.5v676q0 5 3.5 8.5t8.5 3.5h92q5 0 8.5 -3.5t3.5 -8.5v-221
q0 -3 2 -4t3 2q41 54 124 54q81 0 129.5 -48zM131 755.5q-2 4.5 2 10.5l76 105q5 7 14 7h105q9 0 14 -7l76 -105q3 -4 3 -8q0 -7 -10 -7h-70q-9 0 -14 8l-47 67q-2 2 -4 2t-3 -2l-47 -67q-5 -8 -14 -8h-71q-8 0 -10 4.5z" />
    <glyph glyph-name="Hbar" unicode="&#x126;" horiz-adv-x="637" 
d="M625.5 583.5q3.5 -3.5 3.5 -8.5v-56q0 -5 -3.5 -8.5t-8.5 -3.5h-42q-5 0 -5 -5v-490q0 -5 -3.5 -8.5t-8.5 -3.5h-92q-5 0 -8.5 3.5t-3.5 8.5v286q0 5 -5 5h-255q-5 0 -5 -5v-286q0 -5 -3.5 -8.5t-8.5 -3.5h-92q-5 0 -8.5 3.5t-3.5 8.5v490q0 5 -5 5h-42q-5 0 -8.5 3.5
t-3.5 8.5v56q0 5 3.5 8.5t8.5 3.5h42q5 0 5 5v96q0 5 3.5 8.5t8.5 3.5h92q5 0 8.5 -3.5t3.5 -8.5v-96q0 -5 5 -5h255q5 0 5 5v96q0 5 3.5 8.5t8.5 3.5h92q5 0 8.5 -3.5t3.5 -8.5v-96q0 -5 5 -5h42q5 0 8.5 -3.5zM454 408v94q0 5 -5 5h-255q-5 0 -5 -5v-94q0 -5 5 -5h255
q5 0 5 5z" />
    <glyph glyph-name="hbar" unicode="&#x127;" 
d="M436.5 471q48.5 -48 48.5 -131v-328q0 -5 -3.5 -8.5t-8.5 -3.5h-92q-5 0 -8.5 3.5t-3.5 8.5v304q0 46 -26 74.5t-69 28.5t-69.5 -28t-26.5 -74v-305q0 -5 -3.5 -8.5t-8.5 -3.5h-92q-5 0 -8.5 3.5t-3.5 8.5v535q0 5 -5 5h-49q-5 0 -8.5 3.5t-3.5 8.5v48q0 5 3.5 8.5
t8.5 3.5h49q5 0 5 5v59q0 5 3.5 8.5t8.5 3.5h92q5 0 8.5 -3.5t3.5 -8.5v-59q0 -5 5 -5h142q5 0 8.5 -3.5t3.5 -8.5v-48q0 -5 -3.5 -8.5t-8.5 -3.5h-142q-5 0 -5 -5v-80q0 -3 2 -4t3 2q41 54 124 54q81 0 129.5 -48z" />
    <glyph glyph-name="Itilde" unicode="&#x128;" horiz-adv-x="262" 
d="M76.5 3.5q-3.5 3.5 -3.5 8.5v676q0 5 3.5 8.5t8.5 3.5h92q5 0 8.5 -3.5t3.5 -8.5v-676q0 -5 -3.5 -8.5t-8.5 -3.5h-92q-5 0 -8.5 3.5zM162 777.5q-13 4.5 -33 14.5q-3 2 -14.5 7.5t-19.5 8t-16 2.5q-17 0 -29.5 -5.5t-23.5 -17.5q-5 -5 -10 -5q-4 0 -7 4l-32 34
q-8 8 -2 16q16 27 41.5 42t56.5 15q20 0 34 -5.5t37 -17.5q19 -10 29 -14t21 -4q30 0 50 25q5 5 9 5q5 0 8 -4l29 -34q6 -7 3 -15q-13 -26 -39.5 -41t-59.5 -15q-19 0 -32 4.5z" />
    <glyph glyph-name="itilde" unicode="&#x129;" horiz-adv-x="228" 
d="M59.5 3.5q-3.5 3.5 -3.5 8.5v487q0 5 3.5 8.5t8.5 3.5h92q5 0 8.5 -3.5t3.5 -8.5v-487q0 -5 -3.5 -8.5t-8.5 -3.5h-92q-5 0 -8.5 3.5zM145 588.5q-13 4.5 -33 14.5q-3 2 -14.5 7.5t-19.5 8t-16 2.5q-17 0 -29.5 -5.5t-23.5 -17.5q-5 -5 -10 -5q-4 0 -7 4l-32 34
q-8 8 -2 16q16 27 41.5 42t56.5 15q20 0 34 -5.5t37 -17.5q19 -10 29 -14t21 -4q30 0 50 25q5 5 9 5q5 0 8 -4l29 -34q6 -7 3 -15q-13 -26 -39.5 -41t-59.5 -15q-19 0 -32 4.5z" />
    <glyph glyph-name="Imacron" unicode="&#x12a;" horiz-adv-x="262" 
d="M76.5 3.5q-3.5 3.5 -3.5 8.5v676q0 5 3.5 8.5t8.5 3.5h92q5 0 8.5 -3.5t3.5 -8.5v-676q0 -5 -3.5 -8.5t-8.5 -3.5h-92q-5 0 -8.5 3.5zM-7.5 775.5q-3.5 3.5 -3.5 8.5v56q0 5 3.5 8.5t8.5 3.5h261q5 0 8.5 -3.5t3.5 -8.5v-56q0 -5 -3.5 -8.5t-8.5 -3.5h-261q-5 0 -8.5 3.5
z" />
    <glyph glyph-name="imacron" unicode="&#x12b;" horiz-adv-x="228" 
d="M59.5 3.5q-3.5 3.5 -3.5 8.5v487q0 5 3.5 8.5t8.5 3.5h92q5 0 8.5 -3.5t3.5 -8.5v-487q0 -5 -3.5 -8.5t-8.5 -3.5h-92q-5 0 -8.5 3.5zM-24.5 586.5q-3.5 3.5 -3.5 8.5v56q0 5 3.5 8.5t8.5 3.5h261q5 0 8.5 -3.5t3.5 -8.5v-56q0 -5 -3.5 -8.5t-8.5 -3.5h-261
q-5 0 -8.5 3.5z" />
    <glyph glyph-name="ibreve" unicode="&#x12d;" horiz-adv-x="228" 
d="M59.5 3.5q-3.5 3.5 -3.5 8.5v487q0 5 3.5 8.5t8.5 3.5h92q5 0 8.5 -3.5t3.5 -8.5v-487q0 -5 -3.5 -8.5t-8.5 -3.5h-92q-5 0 -8.5 3.5zM15 602q-41 30 -46 77v2q0 10 11 10h48q10 0 12 -11q5 -23 25.5 -37t48.5 -14q29 0 50 14t26 37q2 11 12 11h46q13 0 11 -10
q-5 -48 -45 -78.5t-100 -30.5q-58 0 -99 30z" />
    <glyph glyph-name="Iogonek" unicode="&#x12e;" horiz-adv-x="247" 
d="M69.5 3.5q-3.5 3.5 -3.5 8.5v676q0 5 3.5 8.5t8.5 3.5h92q5 0 8.5 -3.5t3.5 -8.5v-676q0 -5 -3.5 -8.5t-8.5 -3.5h-92q-5 0 -8.5 3.5zM193 -171q0 -7 -8 -11q-24 -8 -53 -8q-33 0 -58.5 14.5t-34.5 47.5q-3 12 -3 24q0 52 57 99q6 5 15 5h49q10 0 10 -6q0 -5 -5 -9
q-48 -38 -48 -72q0 -18 11 -27t28 -9q9 0 20 3l5 1q9 0 10 -10l5 -38v-4z" />
    <glyph glyph-name="iogonek" unicode="&#x12f;" horiz-adv-x="272" 
d="M89.5 3.5q-3.5 3.5 -3.5 8.5v487q0 5 3.5 8.5t8.5 3.5h92q5 0 8.5 -3.5t3.5 -8.5v-487q0 -5 -3.5 -8.5t-8.5 -3.5h-92q-5 0 -8.5 3.5zM94 601q-20 20 -20 51t20 51t51 20t50.5 -20t19.5 -51t-20 -51t-50 -20q-31 0 -51 20zM214 -171q0 -7 -8 -11q-24 -8 -53 -8
q-33 0 -58.5 14.5t-34.5 47.5q-3 12 -3 24q0 52 57 99q6 5 15 5h49q10 0 10 -6q0 -5 -5 -9q-48 -38 -48 -72q0 -18 11 -27t28 -9q9 0 20 3l5 1q9 0 10 -10l5 -38v-4z" />
    <glyph glyph-name="Idotaccent" unicode="&#x130;" horiz-adv-x="262" 
d="M76.5 3.5q-3.5 3.5 -3.5 8.5v676q0 5 3.5 8.5t8.5 3.5h92q5 0 8.5 -3.5t3.5 -8.5v-676q0 -5 -3.5 -8.5t-8.5 -3.5h-92q-5 0 -8.5 3.5zM80 790q-20 20 -20 51t20 51t51 20t50.5 -20t19.5 -51t-20 -51t-50 -20q-31 0 -51 20z" />
    <glyph glyph-name="dotlessi" unicode="&#x131;" horiz-adv-x="228" 
d="M59.5 3.5q-3.5 3.5 -3.5 8.5v487q0 5 3.5 8.5t8.5 3.5h92q5 0 8.5 -3.5t3.5 -8.5v-487q0 -5 -3.5 -8.5t-8.5 -3.5h-92q-5 0 -8.5 3.5z" />
    <glyph glyph-name="ij" unicode="&#x133;" horiz-adv-x="494" 
d="M77 601q-20 20 -20 51t20 51t51 20t51 -20t20 -51t-20 -51t-51 -20t-51 20zM71.5 3.5q-3.5 3.5 -3.5 8.5v488q0 5 3.5 8.5t8.5 3.5h92q5 0 8.5 -3.5t3.5 -8.5v-488q0 -5 -3.5 -8.5t-8.5 -3.5h-92q-5 0 -8.5 3.5zM316 601q-20 20 -20 51t20 51t51 20t51 -20t20 -51
t-20 -51t-51 -20t-51 20zM192 -193v74q0 12 13 11q57 -1 81 20.5t24 70.5l-1 516q0 5 3.5 8.5t8.5 3.5h92q5 0 8.5 -3.5t3.5 -8.5v-515q0 -73 -20.5 -114t-68 -59t-132.5 -16q-12 0 -12 12z" />
    <glyph glyph-name="Jcircumflex" unicode="&#x134;" horiz-adv-x="581" 
d="M137 19.5q-55 27.5 -85 77.5t-30 116v67q0 5 3.5 8.5t8.5 3.5h92q5 0 8.5 -3.5t3.5 -8.5v-67q0 -54 34.5 -87.5t92.5 -33.5q56 0 92 33.5t36 87.5v475q0 5 3.5 8.5t8.5 3.5h91q5 0 8.5 -3.5t3.5 -8.5v-475q0 -66 -30.5 -116t-86 -77.5t-126.5 -27.5q-73 0 -128 27.5z
M306 767.5q-2 4.5 2 10.5l76 105q5 7 14 7h105q9 0 14 -7l76 -105q3 -4 3 -8q0 -7 -10 -7h-70q-9 0 -14 8l-47 67q-2 2 -4 2t-3 -2l-47 -67q-5 -8 -14 -8h-71q-8 0 -10 4.5z" />
    <glyph glyph-name="jcircumflex" unicode="&#x135;" horiz-adv-x="252" 
d="M-51 -193v74q0 12 13 11q57 -1 81 20.5t24 70.5l-1 516q0 5 3.5 8.5t8.5 3.5h93q5 0 8.5 -3.5t3.5 -8.5v-515q0 -72 -20.5 -113.5t-68.5 -59.5t-133 -16q-12 0 -12 12zM-20 577.5q-2 4.5 2 10.5l76 105q5 7 14 7h105q9 0 14 -7l76 -105q3 -4 3 -8q0 -7 -10 -7h-70
q-9 0 -14 8l-47 67q-2 2 -4 2t-3 -2l-47 -67q-5 -8 -14 -8h-71q-8 0 -10 4.5z" />
    <glyph glyph-name="uni0136" unicode="&#x136;" horiz-adv-x="620" 
d="M76.5 3.5q-3.5 3.5 -3.5 8.5v676q0 5 3.5 8.5t8.5 3.5h92q5 0 8.5 -3.5t3.5 -8.5v-299q0 -3 2 -4t4 1l260 307q6 7 15 7h104q10 0 10 -7q0 -3 -3 -8l-229 -281q-3 -4 -1 -7l246 -383q2 -6 2 -7q0 -7 -10 -7h-105q-9 0 -14 8l-198 308q-4 6 -7 1l-74 -86q-2 -4 -2 -7v-212
q0 -5 -3.5 -8.5t-8.5 -3.5h-92q-5 0 -8.5 3.5zM221 -176q-2 4 1 10l55 103q4 8 15 8h79q7 0 9.5 -4.5t-1.5 -10.5l-69 -102q-5 -8 -14 -8h-66q-7 0 -9 4z" />
    <glyph glyph-name="uni0137" unicode="&#x137;" horiz-adv-x="522" 
d="M65.5 3.5q-3.5 3.5 -3.5 8.5v676q0 5 3.5 8.5t8.5 3.5h92q5 0 8.5 -3.5t3.5 -8.5v-361q0 -3 2 -4t4 2l162 179q7 7 15 7h106q10 0 10 -7q0 -3 -3 -8l-127 -152q-3 -3 -1 -7l150 -323q2 -4 2 -6q0 -8 -11 -8h-97q-10 0 -14 9l-109 254q-1 2 -3.5 2.5t-3.5 -1.5l-80 -92
q-2 -4 -2 -7v-153q0 -5 -3.5 -8.5t-8.5 -3.5h-92q-5 0 -8.5 3.5zM180 -176q-2 4 1 10l55 103q4 8 15 8h79q7 0 9.5 -4.5t-1.5 -10.5l-69 -102q-5 -8 -14 -8h-66q-7 0 -9 4z" />
    <glyph glyph-name="Lacute" unicode="&#x139;" horiz-adv-x="571" 
d="M76.5 3.5q-3.5 3.5 -3.5 8.5v676q0 5 3.5 8.5t8.5 3.5h92q5 0 8.5 -3.5t3.5 -8.5v-583q0 -5 5 -5h335q5 0 8.5 -3.5t3.5 -8.5v-76q0 -5 -3.5 -8.5t-8.5 -3.5h-444q-5 0 -8.5 3.5zM74 768q-2 4 1 10l55 103q4 8 15 8h79q7 0 9.5 -4.5t-1.5 -10.5l-69 -102q-5 -8 -14 -8
h-66q-7 0 -9 4z" />
    <glyph glyph-name="lacute" unicode="&#x13a;" horiz-adv-x="239" 
d="M65.5 3.5q-3.5 3.5 -3.5 8.5v676q0 5 3.5 8.5t8.5 3.5h92q5 0 8.5 -3.5t3.5 -8.5v-676q0 -5 -3.5 -8.5t-8.5 -3.5h-92q-5 0 -8.5 3.5zM65 768q-2 4 1 10l55 103q4 8 15 8h79q7 0 9.5 -4.5t-1.5 -10.5l-69 -102q-5 -8 -14 -8h-66q-7 0 -9 4z" />
    <glyph glyph-name="uni013B" unicode="&#x13b;" horiz-adv-x="571" 
d="M76.5 3.5q-3.5 3.5 -3.5 8.5v676q0 5 3.5 8.5t8.5 3.5h92q5 0 8.5 -3.5t3.5 -8.5v-583q0 -5 5 -5h335q5 0 8.5 -3.5t3.5 -8.5v-76q0 -5 -3.5 -8.5t-8.5 -3.5h-444q-5 0 -8.5 3.5zM188 -176q-2 4 1 10l55 103q4 8 15 8h79q7 0 9.5 -4.5t-1.5 -10.5l-69 -102q-5 -8 -14 -8
h-66q-7 0 -9 4z" />
    <glyph glyph-name="uni013C" unicode="&#x13c;" horiz-adv-x="239" 
d="M65.5 3.5q-3.5 3.5 -3.5 8.5v676q0 5 3.5 8.5t8.5 3.5h92q5 0 8.5 -3.5t3.5 -8.5v-676q0 -5 -3.5 -8.5t-8.5 -3.5h-92q-5 0 -8.5 3.5zM4 -176q-2 4 1 10l55 103q4 8 15 8h79q7 0 9.5 -4.5t-1.5 -10.5l-69 -102q-5 -8 -14 -8h-66q-7 0 -9 4z" />
    <glyph glyph-name="Lcaron" unicode="&#x13d;" horiz-adv-x="571" 
d="M76.5 3.5q-3.5 3.5 -3.5 8.5v676q0 5 3.5 8.5t8.5 3.5h92q5 0 8.5 -3.5t3.5 -8.5v-583q0 -5 5 -5h335q5 0 8.5 -3.5t3.5 -8.5v-76q0 -5 -3.5 -8.5t-8.5 -3.5h-444q-5 0 -8.5 3.5zM263 579q-2 4 1 10l55 103q4 8 15 8h79q7 0 9.5 -4.5t-1.5 -10.5l-69 -102q-5 -8 -14 -8
h-66q-7 0 -9 4z" />
    <glyph glyph-name="lcaron" unicode="&#x13e;" horiz-adv-x="409" 
d="M65.5 3.5q-3.5 3.5 -3.5 8.5v676q0 5 3.5 8.5t8.5 3.5h92q5 0 8.5 -3.5t3.5 -8.5v-676q0 -5 -3.5 -8.5t-8.5 -3.5h-92q-5 0 -8.5 3.5zM214 579q-2 4 1 10l55 103q4 8 15 8h79q7 0 9.5 -4.5t-1.5 -10.5l-69 -102q-5 -8 -14 -8h-66q-7 0 -9 4z" />
    <glyph glyph-name="ldot" unicode="&#x140;" horiz-adv-x="265" 
d="M78.5 3.5q-3.5 3.5 -3.5 8.5v676q0 5 3.5 8.5t8.5 3.5h92q5 0 8.5 -3.5t3.5 -8.5v-676q0 -5 -3.5 -8.5t-8.5 -3.5h-92q-5 0 -8.5 3.5zM83 790q-20 20 -20 51t20 51t51 20t50.5 -20t19.5 -51t-20 -51t-50 -20q-31 0 -51 20z" />
    <glyph glyph-name="Lslash" unicode="&#x141;" horiz-adv-x="629" 
d="M253 100h335q5 0 8.5 -3.5t3.5 -8.5v-76q0 -5 -3.5 -8.5t-8.5 -3.5h-444q-5 0 -8.5 3.5t-3.5 8.5v200q0 3 -2 4t-4 -1l-84 -68q-4 -3 -8 -3t-9 5l-41 50q-4 6 -4 8q0 4 5 9l144 116q3 2 3 6v350q0 5 3.5 8.5t8.5 3.5h92q5 0 8.5 -3.5t3.5 -8.5v-252q0 -3 2 -4t4 1
l197 159q4 3 8 3t9 -5l41 -50q4 -6 4 -8q0 -4 -5 -9l-257 -207q-3 -1 -3 -6v-205q0 -5 5 -5z" />
    <glyph glyph-name="lslash" unicode="&#x142;" horiz-adv-x="402" 
d="M381 408q0 -5 -6 -10l-120 -67q-3 -2 -3 -6v-313q0 -5 -3.5 -8.5t-8.5 -3.5h-92q-5 0 -8.5 3.5t-3.5 8.5v245q0 3 -2 4.5t-4 -0.5l-62 -35q-4 -2 -7 -2q-6 0 -10 7l-28 54q-2 4 -2 6q0 6 6 10l106 60q3 2 3 6v321q0 5 3.5 8.5t8.5 3.5h92q5 0 8.5 -3.5t3.5 -8.5v-252
q0 -3 2 -4t4 0l74 43q4 2 6 2q6 0 10 -7l31 -56q2 -4 2 -6z" />
    <glyph glyph-name="Nacute" unicode="&#x143;" horiz-adv-x="669" 
d="M483.5 696.5q3.5 3.5 8.5 3.5h92q5 0 8.5 -3.5t3.5 -8.5v-676q0 -5 -3.5 -8.5t-8.5 -3.5h-89q-10 0 -14 8l-288 472q-2 3 -4 2.5t-2 -4.5l2 -466q0 -5 -3.5 -8.5t-8.5 -3.5h-92q-5 0 -8.5 3.5t-3.5 8.5v676q0 5 3.5 8.5t8.5 3.5h89q10 0 14 -8l287 -472q2 -3 4 -2.5
t2 4.5l-1 466q0 5 3.5 8.5zM273 768q-2 4 1 10l55 103q4 8 15 8h79q7 0 9.5 -4.5t-1.5 -10.5l-69 -102q-5 -8 -14 -8h-66q-7 0 -9 4z" />
    <glyph glyph-name="nacute" unicode="&#x144;" 
d="M436.5 471q48.5 -48 48.5 -131v-328q0 -5 -3.5 -8.5t-8.5 -3.5h-92q-5 0 -8.5 3.5t-3.5 8.5v304q0 46 -26 74.5t-69 28.5t-69.5 -28t-26.5 -74v-305q0 -5 -3.5 -8.5t-8.5 -3.5h-92q-5 0 -8.5 3.5t-3.5 8.5v487q0 5 3.5 8.5t8.5 3.5h92q5 0 8.5 -3.5t3.5 -8.5v-32
q0 -3 2 -4t3 2q41 54 124 54q81 0 129.5 -48zM220 579q-2 4 1 10l55 103q4 8 15 8h79q7 0 9.5 -4.5t-1.5 -10.5l-69 -102q-5 -8 -14 -8h-66q-7 0 -9 4z" />
    <glyph glyph-name="uni0145" unicode="&#x145;" horiz-adv-x="669" 
d="M483.5 696.5q3.5 3.5 8.5 3.5h92q5 0 8.5 -3.5t3.5 -8.5v-676q0 -5 -3.5 -8.5t-8.5 -3.5h-89q-10 0 -14 8l-288 472q-2 3 -4 2.5t-2 -4.5l2 -466q0 -5 -3.5 -8.5t-8.5 -3.5h-92q-5 0 -8.5 3.5t-3.5 8.5v676q0 5 3.5 8.5t8.5 3.5h89q10 0 14 -8l287 -472q2 -3 4 -2.5
t2 4.5l-1 466q0 5 3.5 8.5zM242 -176q-2 4 1 10l55 103q4 8 15 8h79q7 0 9.5 -4.5t-1.5 -10.5l-69 -102q-5 -8 -14 -8h-66q-7 0 -9 4z" />
    <glyph glyph-name="uni0146" unicode="&#x146;" 
d="M436.5 471q48.5 -48 48.5 -131v-328q0 -5 -3.5 -8.5t-8.5 -3.5h-92q-5 0 -8.5 3.5t-3.5 8.5v304q0 46 -26 74.5t-69 28.5t-69.5 -28t-26.5 -74v-305q0 -5 -3.5 -8.5t-8.5 -3.5h-92q-5 0 -8.5 3.5t-3.5 8.5v487q0 5 3.5 8.5t8.5 3.5h92q5 0 8.5 -3.5t3.5 -8.5v-32
q0 -3 2 -4t3 2q41 54 124 54q81 0 129.5 -48zM185 -176q-2 4 1 10l55 103q4 8 15 8h79q7 0 9.5 -4.5t-1.5 -10.5l-69 -102q-5 -8 -14 -8h-66q-7 0 -9 4z" />
    <glyph glyph-name="Ncaron" unicode="&#x147;" horiz-adv-x="669" 
d="M483.5 696.5q3.5 3.5 8.5 3.5h92q5 0 8.5 -3.5t3.5 -8.5v-676q0 -5 -3.5 -8.5t-8.5 -3.5h-89q-10 0 -14 8l-288 472q-2 3 -4 2.5t-2 -4.5l2 -466q0 -5 -3.5 -8.5t-8.5 -3.5h-92q-5 0 -8.5 3.5t-3.5 8.5v676q0 5 3.5 8.5t8.5 3.5h89q10 0 14 -8l287 -472q2 -3 4 -2.5
t2 4.5l-1 466q0 5 3.5 8.5zM188 881q0 8 11 8h71q9 0 14 -8l47 -68q2 -2 4 -2t3 2l47 68q5 8 14 8h70q10 0 10 -7q0 -3 -3 -8l-76 -105q-5 -7 -14 -7h-105q-9 0 -14 7l-76 105q-3 5 -3 7z" />
    <glyph glyph-name="ncaron" unicode="&#x148;" 
d="M436.5 471q48.5 -48 48.5 -131v-328q0 -5 -3.5 -8.5t-8.5 -3.5h-92q-5 0 -8.5 3.5t-3.5 8.5v304q0 46 -26 74.5t-69 28.5t-69.5 -28t-26.5 -74v-305q0 -5 -3.5 -8.5t-8.5 -3.5h-92q-5 0 -8.5 3.5t-3.5 8.5v487q0 5 3.5 8.5t8.5 3.5h92q5 0 8.5 -3.5t3.5 -8.5v-32
q0 -3 2 -4t3 2q41 54 124 54q81 0 129.5 -48zM135 692q0 8 11 8h71q9 0 14 -8l47 -68q2 -2 4 -2t3 2l47 68q5 8 14 8h70q10 0 10 -7q0 -3 -3 -8l-76 -105q-5 -7 -14 -7h-105q-9 0 -14 7l-76 105q-3 5 -3 7z" />
    <glyph glyph-name="Eng" unicode="&#x14a;" horiz-adv-x="669" 
d="M483.5 696.5q3.5 3.5 8.5 3.5h92q5 0 8.5 -3.5t3.5 -8.5v-688q-2 -67 -22 -105t-65 -54.5t-126 -14.5q-12 0 -12 12v74q0 12 13 11q53 -1 73.5 18.5t22.5 65.5q0 2 -2 6l-285 467q-2 3 -4 2.5t-2 -4.5l2 -466q0 -5 -3.5 -8.5t-8.5 -3.5h-92q-5 0 -8.5 3.5t-3.5 8.5v676
q0 5 3.5 8.5t8.5 3.5h89q10 0 14 -8l286 -470q2 -3 4 -2.5t2 4.5v464q0 5 3.5 8.5z" />
    <glyph glyph-name="eng" unicode="&#x14b;" horiz-adv-x="545" 
d="M487 209q2 -4 2 -10v-193q0 -69 -16.5 -109t-59.5 -60t-123 -21q-12 0 -12 12v70q0 12 12 12q43 3 62 23.5t21 62.5q0 2 -2 6t-2 10v304q0 46 -26 74.5t-69 28.5t-69.5 -28t-26.5 -74v-305q0 -5 -3.5 -8.5t-8.5 -3.5h-92q-5 0 -8.5 3.5t-3.5 8.5v487q0 5 3.5 8.5t8.5 3.5
h92q5 0 8.5 -3.5t3.5 -8.5v-32q0 -3 2 -3.5t4 1.5q41 54 123 54q81 0 129.5 -48t48.5 -131v-126q0 -1 2 -5z" />
    <glyph glyph-name="Omacron" unicode="&#x14c;" horiz-adv-x="621" 
d="M177 20.5q-58 30.5 -89.5 86.5t-31.5 129v228q0 72 32 127.5t89.5 86t132.5 30.5q76 0 133.5 -30.5t89.5 -86t32 -127.5v-228q0 -73 -32 -129t-89.5 -86.5t-133.5 -30.5q-75 0 -133 30.5zM411 129q38 39 38 103v233q0 65 -38 104t-101 39q-62 0 -100 -39t-38 -104v-233
q0 -64 38 -103t100 -39q63 0 101 39zM171.5 775.5q-3.5 3.5 -3.5 8.5v56q0 5 3.5 8.5t8.5 3.5h261q5 0 8.5 -3.5t3.5 -8.5v-56q0 -5 -3.5 -8.5t-8.5 -3.5h-261q-5 0 -8.5 3.5z" />
    <glyph glyph-name="omacron" unicode="&#x14d;" horiz-adv-x="545" 
d="M143.5 32q-56.5 40 -79.5 111q-17 54 -17 114q0 64 16 114q23 70 80 109t137 39q76 0 131.5 -39t78.5 -108q18 -48 18 -114q0 -63 -17 -114q-23 -71 -79 -111.5t-133 -40.5q-79 0 -135.5 40zM342.5 113q26.5 21 38.5 59q10 33 10 84q0 54 -10 84q-11 38 -38 58.5
t-66 20.5q-37 0 -64 -20.5t-39 -58.5q-10 -35 -10 -84t10 -84q11 -38 38.5 -59t66.5 -21q37 0 63.5 21zM133.5 586.5q-3.5 3.5 -3.5 8.5v56q0 5 3.5 8.5t8.5 3.5h261q5 0 8.5 -3.5t3.5 -8.5v-56q0 -5 -3.5 -8.5t-8.5 -3.5h-261q-5 0 -8.5 3.5z" />
    <glyph glyph-name="obreve" unicode="&#x14f;" horiz-adv-x="545" 
d="M143.5 32q-56.5 40 -79.5 111q-17 54 -17 114q0 64 16 114q23 70 80 109t137 39q76 0 131.5 -39t78.5 -108q18 -48 18 -114q0 -63 -17 -114q-23 -71 -79 -111.5t-133 -40.5q-79 0 -135.5 40zM342.5 113q26.5 21 38.5 59q10 33 10 84q0 54 -10 84q-11 38 -38 58.5
t-66 20.5q-37 0 -64 -20.5t-39 -58.5q-10 -35 -10 -84t10 -84q11 -38 38.5 -59t66.5 -21q37 0 63.5 21zM173 602q-41 30 -46 77v2q0 10 11 10h48q10 0 12 -11q5 -23 25.5 -37t48.5 -14q29 0 50 14t26 37q2 11 12 11h46q13 0 11 -10q-5 -48 -45 -78.5t-100 -30.5
q-58 0 -99 30z" />
    <glyph glyph-name="Ohungarumlaut" unicode="&#x150;" horiz-adv-x="621" 
d="M177 20.5q-58 30.5 -89.5 86.5t-31.5 129v228q0 72 32 127.5t89.5 86t132.5 30.5q76 0 133.5 -30.5t89.5 -86t32 -127.5v-228q0 -73 -32 -129t-89.5 -86.5t-133.5 -30.5q-75 0 -133 30.5zM411 129q38 39 38 103v233q0 65 -38 104t-101 39q-62 0 -100 -39t-38 -104v-233
q0 -64 38 -103t100 -39q63 0 101 39zM178.5 767.5q-2.5 3.5 0.5 10.5l50 102q4 9 14 9h81q7 0 9 -4t-1 -10l-54 -102q-5 -9 -15 -9h-75q-7 0 -9.5 3.5zM352 768q-2 4 1 10l54 102q4 9 15 9h75q7 0 9 -4t-1 -10l-55 -103q-4 -8 -15 -8h-74q-7 0 -9 4z" />
    <glyph glyph-name="ohungarumlaut" unicode="&#x151;" horiz-adv-x="545" 
d="M143.5 32q-56.5 40 -79.5 111q-17 54 -17 114q0 64 16 114q23 70 80 109t137 39q76 0 131.5 -39t78.5 -108q18 -48 18 -114q0 -63 -17 -114q-23 -71 -79 -111.5t-133 -40.5q-79 0 -135.5 40zM342.5 113q26.5 21 38.5 59q10 33 10 84q0 54 -10 84q-11 38 -38 58.5
t-66 20.5q-37 0 -64 -20.5t-39 -58.5q-10 -35 -10 -84t10 -84q11 -38 38.5 -59t66.5 -21q37 0 63.5 21zM140.5 578.5q-2.5 3.5 0.5 10.5l50 102q4 9 14 9h81q7 0 9 -4t-1 -10l-54 -102q-5 -9 -15 -9h-75q-7 0 -9.5 3.5zM314 579q-2 4 1 10l54 102q4 9 15 9h75q7 0 9 -4
t-1 -10l-55 -103q-4 -8 -15 -8h-74q-7 0 -9 4z" />
    <glyph glyph-name="OE" unicode="&#x152;" horiz-adv-x="927" 
d="M878.5 603.5q-3.5 -3.5 -8.5 -3.5h-317q-5 0 -5 -5v-187q0 -5 5 -5h205q5 0 8.5 -3.5t3.5 -8.5v-76q0 -5 -3.5 -8.5t-8.5 -3.5h-205q-5 0 -5 -5v-193q0 -5 5 -5h317q5 0 8.5 -3.5t3.5 -8.5v-76q0 -5 -3.5 -8.5t-8.5 -3.5h-426q-5 0 -8.5 3.5t-3.5 8.5v28q0 3 -2 4t-4 -1
q-32 -26 -71 -39.5t-82 -13.5q-61 0 -110.5 30t-78 84t-28.5 123v245q0 68 28.5 122t78 84t110.5 30q42 0 81.5 -13.5t71.5 -38.5q2 -2 4 -1t2 4v29q0 5 3.5 8.5t8.5 3.5h426q5 0 8.5 -3.5t3.5 -8.5v-76q0 -5 -3.5 -8.5zM396 127.5q36 37.5 36 96.5v250q0 59 -36 96.5
t-95 37.5q-57 0 -93 -37.5t-36 -96.5v-250q0 -59 36 -96.5t93 -37.5q59 0 95 37.5z" />
    <glyph glyph-name="oe" unicode="&#x153;" horiz-adv-x="867" 
d="M680.5 104.5q28.5 15.5 44.5 40.5q6 12 16 4l56 -45q5 -2 5 -9q0 -5 -2 -8q-31 -45 -79.5 -70t-111.5 -25q-54 0 -97.5 20.5t-73.5 56.5q-3 3 -7 0q-30 -36 -72 -56.5t-91 -20.5q-74 0 -129 39t-77 106q-14 46 -14 120q0 78 14 119q21 66 76 104.5t130 38.5q49 0 91 -20
t72 -56q4 -3 8 0q29 35 71 55.5t90 20.5q76 0 132.5 -40t76.5 -104q8 -21 11 -55t3 -92q0 -12 -12 -12h-308q-5 0 -5 -5q2 -29 7 -43q10 -37 40 -58t78 -21q29 0 57.5 15.5zM372 257q0 64 -9 87q-8 34 -33.5 54.5t-61.5 20.5q-35 0 -60.5 -20.5t-34.5 -54.5q-9 -28 -9 -87
q0 -56 10 -89q8 -35 33 -55.5t61 -20.5t61.5 21t33.5 55q9 24 9 89zM538.5 398.5q-25.5 -20.5 -33.5 -55.5q-5 -15 -7 -42q0 -5 5 -5h198q5 0 5 5q-2 29 -7 42q-8 34 -34 55t-64 21q-37 0 -62.5 -20.5z" />
    <glyph glyph-name="Racute" unicode="&#x154;" horiz-adv-x="613" 
d="M452 9l-132 288q-2 4 -6 4h-120q-5 0 -5 -5v-284q0 -5 -3.5 -8.5t-8.5 -3.5h-92q-5 0 -8.5 3.5t-3.5 8.5v676q0 5 3.5 8.5t8.5 3.5h275q61 0 108 -25.5t73 -72t26 -106.5q0 -69 -35.5 -117.5t-98.5 -67.5q-2 0 -3 -2t0 -4l141 -291q2 -4 2 -6q0 -8 -11 -8h-96
q-10 0 -14 9zM189 595v-199q0 -5 5 -5h150q48 0 77.5 28.5t29.5 75.5t-29.5 76t-77.5 29h-150q-5 0 -5 -5zM235 768q-2 4 1 10l55 103q4 8 15 8h79q7 0 9.5 -4.5t-1.5 -10.5l-69 -102q-5 -8 -14 -8h-66q-7 0 -9 4z" />
    <glyph glyph-name="racute" unicode="&#x155;" horiz-adv-x="376" 
d="M356 504q8 -4 6 -15l-17 -90q-1 -12 -14 -7q-15 5 -35 5q-13 0 -20 -1q-42 -2 -70 -29.5t-28 -71.5v-283q0 -5 -3.5 -8.5t-8.5 -3.5h-92q-5 0 -8.5 3.5t-3.5 8.5v487q0 5 3.5 8.5t8.5 3.5h92q5 0 8.5 -3.5t3.5 -8.5v-45q0 -4 1.5 -4.5t3.5 2.5q42 65 117 65q32 0 56 -13z
M159 579q-2 4 1 10l55 103q4 8 15 8h79q7 0 9.5 -4.5t-1.5 -10.5l-69 -102q-5 -8 -14 -8h-66q-7 0 -9 4z" />
    <glyph glyph-name="uni0156" unicode="&#x156;" horiz-adv-x="613" 
d="M452 9l-132 288q-2 4 -6 4h-120q-5 0 -5 -5v-284q0 -5 -3.5 -8.5t-8.5 -3.5h-92q-5 0 -8.5 3.5t-3.5 8.5v676q0 5 3.5 8.5t8.5 3.5h275q61 0 108 -25.5t73 -72t26 -106.5q0 -69 -35.5 -117.5t-98.5 -67.5q-2 0 -3 -2t0 -4l141 -291q2 -4 2 -6q0 -8 -11 -8h-96
q-10 0 -14 9zM189 595v-199q0 -5 5 -5h150q48 0 77.5 28.5t29.5 75.5t-29.5 76t-77.5 29h-150q-5 0 -5 -5zM211 -176q-2 4 1 10l55 103q4 8 15 8h79q7 0 9.5 -4.5t-1.5 -10.5l-69 -102q-5 -8 -14 -8h-66q-7 0 -9 4z" />
    <glyph glyph-name="uni0157" unicode="&#x157;" horiz-adv-x="376" 
d="M356 504q8 -4 6 -15l-17 -90q-1 -12 -14 -7q-15 5 -35 5q-13 0 -20 -1q-42 -2 -70 -29.5t-28 -71.5v-283q0 -5 -3.5 -8.5t-8.5 -3.5h-92q-5 0 -8.5 3.5t-3.5 8.5v487q0 5 3.5 8.5t8.5 3.5h92q5 0 8.5 -3.5t3.5 -8.5v-45q0 -4 1.5 -4.5t3.5 2.5q42 65 117 65q32 0 56 -13z
M0 -176q-2 4 1 10l55 103q4 8 15 8h79q7 0 9.5 -4.5t-1.5 -10.5l-69 -102q-5 -8 -14 -8h-66q-7 0 -9 4z" />
    <glyph glyph-name="Rcaron" unicode="&#x158;" horiz-adv-x="613" 
d="M452 9l-132 288q-2 4 -6 4h-120q-5 0 -5 -5v-284q0 -5 -3.5 -8.5t-8.5 -3.5h-92q-5 0 -8.5 3.5t-3.5 8.5v676q0 5 3.5 8.5t8.5 3.5h275q61 0 108 -25.5t73 -72t26 -106.5q0 -69 -35.5 -117.5t-98.5 -67.5q-2 0 -3 -2t0 -4l141 -291q2 -4 2 -6q0 -8 -11 -8h-96
q-10 0 -14 9zM189 595v-199q0 -5 5 -5h150q48 0 77.5 28.5t29.5 75.5t-29.5 76t-77.5 29h-150q-5 0 -5 -5zM149 881q0 8 11 8h71q9 0 14 -8l47 -68q2 -2 4 -2t3 2l47 68q5 8 14 8h70q10 0 10 -7q0 -3 -3 -8l-76 -105q-5 -7 -14 -7h-105q-9 0 -14 7l-76 105q-3 5 -3 7z" />
    <glyph glyph-name="rcaron" unicode="&#x159;" horiz-adv-x="376" 
d="M356 504q8 -4 6 -15l-17 -90q-1 -12 -14 -7q-15 5 -35 5q-13 0 -20 -1q-42 -2 -70 -29.5t-28 -71.5v-283q0 -5 -3.5 -8.5t-8.5 -3.5h-92q-5 0 -8.5 3.5t-3.5 8.5v487q0 5 3.5 8.5t8.5 3.5h92q5 0 8.5 -3.5t3.5 -8.5v-45q0 -4 1.5 -4.5t3.5 2.5q42 65 117 65q32 0 56 -13z
M74 692q0 8 11 8h71q9 0 14 -8l47 -68q2 -2 4 -2t3 2l47 68q5 8 14 8h70q10 0 10 -7q0 -3 -3 -8l-76 -105q-5 -7 -14 -7h-105q-9 0 -14 7l-76 105q-3 5 -3 7z" />
    <glyph glyph-name="Sacute" unicode="&#x15a;" horiz-adv-x="591" 
d="M163 17q-58 25 -89.5 70t-31.5 106v25q0 5 3.5 8.5t8.5 3.5h89q5 0 8.5 -3.5t3.5 -8.5v-19q0 -46 41 -76.5t112 -30.5q61 0 92 26t31 67q0 28 -17 47.5t-48.5 35.5t-94.5 40q-71 26 -115 49t-73.5 62.5t-29.5 98.5q0 88 64 139t171 51q75 0 132.5 -26t89.5 -72.5
t32 -107.5v-17q0 -5 -3.5 -8.5t-8.5 -3.5h-90q-5 0 -8.5 3.5t-3.5 8.5v11q0 47 -38.5 79.5t-106.5 32.5q-55 0 -85.5 -23t-30.5 -65q0 -30 16 -49t48 -34.5t99 -39.5q71 -27 113.5 -49t73 -61.5t30.5 -98.5q0 -90 -66.5 -143t-181.5 -53q-78 0 -136 25zM236 768q-2 4 1 10
l55 103q4 8 15 8h79q7 0 9.5 -4.5t-1.5 -10.5l-69 -102q-5 -8 -14 -8h-66q-7 0 -9 4z" />
    <glyph glyph-name="sacute" unicode="&#x15b;" horiz-adv-x="497" 
d="M141.5 12.5q-47.5 18.5 -73.5 51t-26 72.5v9q0 5 3.5 8.5t8.5 3.5h88q5 0 8.5 -3.5t3.5 -8.5v-2q0 -25 27.5 -43.5t69.5 -18.5q40 0 65 16.5t25 41.5q0 23 -20.5 34.5t-66.5 24.5l-38 12q-51 15 -86 32t-59 46.5t-24 75.5q0 70 55 111.5t145 41.5q61 0 107 -19.5t71 -54
t25 -78.5q0 -5 -3.5 -8.5t-8.5 -3.5h-85q-5 0 -8.5 3.5t-3.5 8.5q0 26 -25.5 43.5t-69.5 17.5q-39 0 -63.5 -14.5t-24.5 -40.5q0 -24 23.5 -36.5t78.5 -27.5l22 -6q53 -16 89 -32.5t61 -46t25 -76.5q0 -71 -56 -111.5t-149 -40.5q-63 0 -110.5 18.5zM192 579q-2 4 1 10
l55 103q4 8 15 8h79q7 0 9.5 -4.5t-1.5 -10.5l-69 -102q-5 -8 -14 -8h-66q-7 0 -9 4z" />
    <glyph glyph-name="Scircumflex" unicode="&#x15c;" horiz-adv-x="591" 
d="M163 17q-58 25 -89.5 70t-31.5 106v25q0 5 3.5 8.5t8.5 3.5h89q5 0 8.5 -3.5t3.5 -8.5v-19q0 -46 41 -76.5t112 -30.5q61 0 92 26t31 67q0 28 -17 47.5t-48.5 35.5t-94.5 40q-71 26 -115 49t-73.5 62.5t-29.5 98.5q0 88 64 139t171 51q75 0 132.5 -26t89.5 -72.5
t32 -107.5v-17q0 -5 -3.5 -8.5t-8.5 -3.5h-90q-5 0 -8.5 3.5t-3.5 8.5v11q0 47 -38.5 79.5t-106.5 32.5q-55 0 -85.5 -23t-30.5 -65q0 -30 16 -49t48 -34.5t99 -39.5q71 -27 113.5 -49t73 -61.5t30.5 -98.5q0 -90 -66.5 -143t-181.5 -53q-78 0 -136 25zM146 766.5
q-2 4.5 2 10.5l76 105q5 7 14 7h105q9 0 14 -7l76 -105q3 -4 3 -8q0 -7 -10 -7h-70q-9 0 -14 8l-47 67q-2 2 -4 2t-3 -2l-47 -67q-5 -8 -14 -8h-71q-8 0 -10 4.5z" />
    <glyph glyph-name="scircumflex" unicode="&#x15d;" horiz-adv-x="497" 
d="M141.5 12.5q-47.5 18.5 -73.5 51t-26 72.5v9q0 5 3.5 8.5t8.5 3.5h88q5 0 8.5 -3.5t3.5 -8.5v-2q0 -25 27.5 -43.5t69.5 -18.5q40 0 65 16.5t25 41.5q0 23 -20.5 34.5t-66.5 24.5l-38 12q-51 15 -86 32t-59 46.5t-24 75.5q0 70 55 111.5t145 41.5q61 0 107 -19.5t71 -54
t25 -78.5q0 -5 -3.5 -8.5t-8.5 -3.5h-85q-5 0 -8.5 3.5t-3.5 8.5q0 26 -25.5 43.5t-69.5 17.5q-39 0 -63.5 -14.5t-24.5 -40.5q0 -24 23.5 -36.5t78.5 -27.5l22 -6q53 -16 89 -32.5t61 -46t25 -76.5q0 -71 -56 -111.5t-149 -40.5q-63 0 -110.5 18.5zM103 577.5
q-2 4.5 2 10.5l76 105q5 7 14 7h105q9 0 14 -7l76 -105q3 -4 3 -8q0 -7 -10 -7h-70q-9 0 -14 8l-47 67q-2 2 -4 2t-3 -2l-47 -67q-5 -8 -14 -8h-71q-8 0 -10 4.5z" />
    <glyph glyph-name="Scedilla" unicode="&#x15e;" horiz-adv-x="591" 
d="M494 57q-53 -51 -147 -62q-6 -2 -2 -6q44 -44 44 -88q0 -12 -3 -24q-8 -33 -33 -47.5t-58 -14.5q-31 0 -55 8q-9 4 -8 15l6 38q1 13 15 8q11 -3 19 -3q17 0 28 9.5t11 27.5q0 33 -49 74q-4 2 -6 2q-99 10 -156.5 63.5t-57.5 135.5v25q0 5 3.5 8.5t8.5 3.5h89
q5 0 8.5 -3.5t3.5 -8.5v-19q0 -46 41 -76.5t112 -30.5q61 0 92 26t31 67q0 28 -17 47.5t-48.5 35.5t-94.5 40q-71 26 -115 49t-73.5 62.5t-29.5 98.5q0 88 64 139t171 51q75 0 132.5 -26t89.5 -72.5t32 -107.5v-17q0 -5 -3.5 -8.5t-8.5 -3.5h-90q-5 0 -8.5 3.5t-3.5 8.5v11
q0 47 -38.5 79.5t-106.5 32.5q-55 0 -85.5 -23t-30.5 -65q0 -30 16 -49t48 -34.5t99 -39.5q71 -27 113.5 -49t73 -61.5t30.5 -98.5q0 -80 -53 -131z" />
    <glyph glyph-name="scedilla" unicode="&#x15f;" horiz-adv-x="497" 
d="M416 46.5q-41 -38.5 -112 -48.5q-6 -2 -2 -6q46 -45 46 -90q0 -12 -3 -24q-9 -33 -34.5 -47.5t-58.5 -14.5q-23 0 -53 8q-9 4 -8 15l5 39q1 13 15 8q11 -3 20 -3q31 0 37 27q1 3 1 10q0 35 -49 74q-4 2 -6 2q-79 8 -125.5 46.5t-46.5 93.5v9q0 5 3.5 8.5t8.5 3.5h88
q5 0 8.5 -3.5t3.5 -8.5v-2q0 -25 27.5 -43.5t69.5 -18.5q40 0 65 16.5t25 41.5q0 23 -20.5 34.5t-66.5 24.5l-38 12q-51 15 -86 32t-59 46.5t-24 75.5q0 70 55 111.5t145 41.5q61 0 107 -19.5t71 -54t25 -78.5q0 -5 -3.5 -8.5t-8.5 -3.5h-85q-5 0 -8.5 3.5t-3.5 8.5
q0 26 -25.5 43.5t-69.5 17.5q-39 0 -63.5 -14.5t-24.5 -40.5q0 -24 23.5 -36.5t78.5 -27.5l22 -6q53 -16 89 -32.5t61 -46t25 -76.5q0 -61 -41 -99.5z" />
    <glyph glyph-name="Scaron" unicode="&#x160;" horiz-adv-x="591" 
d="M163 17q-58 25 -89.5 70t-31.5 106v25q0 5 3.5 8.5t8.5 3.5h89q5 0 8.5 -3.5t3.5 -8.5v-19q0 -46 41 -76.5t112 -30.5q61 0 92 26t31 67q0 28 -17 47.5t-48.5 35.5t-94.5 40q-71 26 -115 49t-73.5 62.5t-29.5 98.5q0 88 64 139t171 51q75 0 132.5 -26t89.5 -72.5
t32 -107.5v-17q0 -5 -3.5 -8.5t-8.5 -3.5h-90q-5 0 -8.5 3.5t-3.5 8.5v11q0 47 -38.5 79.5t-106.5 32.5q-55 0 -85.5 -23t-30.5 -65q0 -30 16 -49t48 -34.5t99 -39.5q71 -27 113.5 -49t73 -61.5t30.5 -98.5q0 -90 -66.5 -143t-181.5 -53q-78 0 -136 25zM150 881q0 8 11 8h71
q9 0 14 -8l47 -68q2 -2 4 -2t3 2l47 68q5 8 14 8h70q10 0 10 -7q0 -3 -3 -8l-76 -105q-5 -7 -14 -7h-105q-9 0 -14 7l-76 105q-3 5 -3 7z" />
    <glyph glyph-name="scaron" unicode="&#x161;" horiz-adv-x="497" 
d="M141.5 12.5q-47.5 18.5 -73.5 51t-26 72.5v9q0 5 3.5 8.5t8.5 3.5h88q5 0 8.5 -3.5t3.5 -8.5v-2q0 -25 27.5 -43.5t69.5 -18.5q40 0 65 16.5t25 41.5q0 23 -20.5 34.5t-66.5 24.5l-38 12q-51 15 -86 32t-59 46.5t-24 75.5q0 70 55 111.5t145 41.5q61 0 107 -19.5t71 -54
t25 -78.5q0 -5 -3.5 -8.5t-8.5 -3.5h-85q-5 0 -8.5 3.5t-3.5 8.5q0 26 -25.5 43.5t-69.5 17.5q-39 0 -63.5 -14.5t-24.5 -40.5q0 -24 23.5 -36.5t78.5 -27.5l22 -6q53 -16 89 -32.5t61 -46t25 -76.5q0 -71 -56 -111.5t-149 -40.5q-63 0 -110.5 18.5zM107 692q0 8 11 8h71
q9 0 14 -8l47 -68q2 -2 4 -2t3 2l47 68q5 8 14 8h70q10 0 10 -7q0 -3 -3 -8l-76 -105q-5 -7 -14 -7h-105q-9 0 -14 7l-76 105q-3 5 -3 7z" />
    <glyph glyph-name="uni0162" unicode="&#x162;" horiz-adv-x="579" 
d="M541.5 696.5q3.5 -3.5 3.5 -8.5v-77q0 -5 -3.5 -8.5t-8.5 -3.5h-184q-5 0 -5 -5v-582q0 -5 -3.5 -8.5t-8.5 -3.5h-92q-5 0 -8.5 3.5t-3.5 8.5v582q0 5 -5 5h-177q-5 0 -8.5 3.5t-3.5 8.5v77q0 5 3.5 8.5t8.5 3.5h487q5 0 8.5 -3.5zM251 -167l5 38q1 12 15 9q11 -3 20 -3
q17 0 28 9t11 27q0 34 -48 72q-5 4 -5 9q0 6 10 6h49q9 0 15 -5q57 -47 57 -100q0 -11 -3 -23q-9 -33 -34.5 -47.5t-58.5 -14.5q-29 0 -53 8q-9 4 -8 15z" />
    <glyph glyph-name="uni0163" unicode="&#x163;" horiz-adv-x="374" 
d="M297.5 -3q-0.5 -2 1.5 -4q36 -37 36 -79q0 -12 -3 -24q-9 -33 -34 -47.5t-58 -14.5q-30 0 -54 8q-9 4 -8 15l5 38q1 13 15 8q9 -3 19 -3q14 0 24.5 7t13.5 21q2 8 2 11q0 28 -41 66q-4 2 -6 2q-53 7 -79.5 35.5t-27.5 90.5v285q0 5 -5 5h-57q-5 0 -8.5 3.5t-3.5 8.5v70
q0 5 3.5 8.5t8.5 3.5h57q5 0 5 5v117q0 5 3.5 8.5t8.5 3.5h87q5 0 8.5 -3.5t3.5 -8.5v-117q0 -5 5 -5h102q5 0 8.5 -3.5t3.5 -8.5v-70q0 -5 -3.5 -8.5t-8.5 -3.5h-102q-5 0 -5 -5v-241q0 -38 16.5 -55t52.5 -17h30q5 0 8.5 -3.5t3.5 -8.5v-75q0 -10 -9 -12q-4 0 -6 -1h-9
q-3 0 -3.5 -2z" />
    <glyph glyph-name="Tcaron" unicode="&#x164;" horiz-adv-x="579" 
d="M541.5 696.5q3.5 -3.5 3.5 -8.5v-77q0 -5 -3.5 -8.5t-8.5 -3.5h-184q-5 0 -5 -5v-582q0 -5 -3.5 -8.5t-8.5 -3.5h-92q-5 0 -8.5 3.5t-3.5 8.5v582q0 5 -5 5h-177q-5 0 -8.5 3.5t-3.5 8.5v77q0 5 3.5 8.5t8.5 3.5h487q5 0 8.5 -3.5zM144 879q0 8 11 8h71q9 0 14 -8l47 -68
q2 -2 4 -2t3 2l47 68q5 8 14 8h70q10 0 10 -7q0 -3 -3 -8l-76 -105q-5 -7 -14 -7h-105q-9 0 -14 7l-76 105q-3 5 -3 7z" />
    <glyph glyph-name="tcaron" unicode="&#x165;" horiz-adv-x="374" 
d="M329.5 420.5q-3.5 -3.5 -8.5 -3.5h-102q-5 0 -5 -5v-241q0 -38 16.5 -55t52.5 -17h30q5 0 8.5 -3.5t3.5 -8.5v-75q0 -11 -12 -13l-52 -1q-79 0 -118 27t-40 102v285q0 5 -5 5h-57q-5 0 -8.5 3.5t-3.5 8.5v70q0 5 3.5 8.5t8.5 3.5h57q5 0 5 5v117q0 5 3.5 8.5t8.5 3.5h87
q5 0 8.5 -3.5t3.5 -8.5v-117q0 -5 5 -5h102q5 0 8.5 -3.5t3.5 -8.5v-70q0 -5 -3.5 -8.5zM253 579q-2 4 1 10l55 103q4 8 15 8h79q7 0 9.5 -4.5t-1.5 -10.5l-69 -102q-5 -8 -14 -8h-66q-7 0 -9 4z" />
    <glyph glyph-name="Tbar" unicode="&#x166;" horiz-adv-x="579" 
d="M541.5 602.5q-3.5 -3.5 -8.5 -3.5h-184q-5 0 -5 -5v-176q0 -5 5 -5h99q5 0 8.5 -3.5t3.5 -8.5v-48q0 -5 -3.5 -8.5t-8.5 -3.5h-99q-5 0 -5 -5v-324q0 -5 -3.5 -8.5t-8.5 -3.5h-92q-5 0 -8.5 3.5t-3.5 8.5v324q0 5 -5 5h-91q-5 0 -8.5 3.5t-3.5 8.5v48q0 5 3.5 8.5
t8.5 3.5h91q5 0 5 5v176q0 5 -5 5h-177q-5 0 -8.5 3.5t-3.5 8.5v77q0 5 3.5 8.5t8.5 3.5h487q5 0 8.5 -3.5t3.5 -8.5v-77q0 -5 -3.5 -8.5z" />
    <glyph glyph-name="tbar" unicode="&#x167;" horiz-adv-x="374" 
d="M329.5 420.5q-3.5 -3.5 -8.5 -3.5h-102q-5 0 -5 -5v-60q0 -5 5 -5h98q5 0 8.5 -3.5t3.5 -8.5v-48q0 -5 -3.5 -8.5t-8.5 -3.5h-98q-5 0 -5 -5v-99q0 -38 16.5 -55t52.5 -17h30q5 0 8.5 -3.5t3.5 -8.5v-75q0 -11 -12 -13l-52 -1q-79 0 -118 27t-40 102v143q0 5 -5 5h-54
q-5 0 -8.5 3.5t-3.5 8.5v48q0 5 3.5 8.5t8.5 3.5h54q5 0 5 5v60q0 5 -5 5h-57q-5 0 -8.5 3.5t-3.5 8.5v70q0 5 3.5 8.5t8.5 3.5h57q5 0 5 5v117q0 5 3.5 8.5t8.5 3.5h87q5 0 8.5 -3.5t3.5 -8.5v-117q0 -5 5 -5h102q5 0 8.5 -3.5t3.5 -8.5v-70q0 -5 -3.5 -8.5z" />
    <glyph glyph-name="Utilde" unicode="&#x168;" horiz-adv-x="636" 
d="M187 21q-57 29 -88.5 82.5t-31.5 123.5v461q0 5 3.5 8.5t8.5 3.5h92q5 0 8.5 -3.5t3.5 -8.5v-463q0 -59 37 -96t98 -37t98 37t37 96v463q0 5 3.5 8.5t8.5 3.5h92q5 0 8.5 -3.5t3.5 -8.5v-461q0 -70 -31 -123.5t-88 -82.5t-132 -29q-74 0 -131 29zM349 777.5
q-13 4.5 -33 14.5q-3 2 -14.5 7.5t-19.5 8t-16 2.5q-17 0 -29.5 -5.5t-23.5 -17.5q-5 -5 -10 -5q-4 0 -7 4l-32 34q-8 8 -2 16q16 27 41.5 42t56.5 15q20 0 34 -5.5t37 -17.5q19 -10 29 -14t21 -4q30 0 50 25q5 5 9 5q5 0 8 -4l29 -34q6 -7 3 -15q-13 -26 -39.5 -41
t-59.5 -15q-19 0 -32 4.5z" />
    <glyph glyph-name="utilde" unicode="&#x169;" 
d="M367.5 507.5q3.5 3.5 8.5 3.5h91q5 0 8.5 -3.5t3.5 -8.5v-487q0 -5 -3.5 -8.5t-8.5 -3.5h-91q-5 0 -8.5 3.5t-3.5 8.5v32q0 3 -2 4t-4 -2q-41 -53 -123 -53q-76 0 -127.5 44t-51.5 125v337q0 5 3.5 8.5t8.5 3.5h92q5 0 8.5 -3.5t3.5 -8.5v-304q0 -47 24.5 -75t68.5 -28
q45 0 72 28t27 75v304q0 5 3.5 8.5zM302 588.5q-13 4.5 -33 14.5q-3 2 -14.5 7.5t-19.5 8t-16 2.5q-17 0 -29.5 -5.5t-23.5 -17.5q-5 -5 -10 -5q-4 0 -7 4l-32 34q-8 8 -2 16q16 27 41.5 42t56.5 15q20 0 34 -5.5t37 -17.5q19 -10 29 -14t21 -4q30 0 50 25q5 5 9 5q5 0 8 -4
l29 -34q6 -7 3 -15q-13 -26 -39.5 -41t-59.5 -15q-19 0 -32 4.5z" />
    <glyph glyph-name="Umacron" unicode="&#x16a;" horiz-adv-x="636" 
d="M187 21q-57 29 -88.5 82.5t-31.5 123.5v461q0 5 3.5 8.5t8.5 3.5h92q5 0 8.5 -3.5t3.5 -8.5v-463q0 -59 37 -96t98 -37t98 37t37 96v463q0 5 3.5 8.5t8.5 3.5h92q5 0 8.5 -3.5t3.5 -8.5v-461q0 -70 -31 -123.5t-88 -82.5t-132 -29q-74 0 -131 29zM179.5 775.5
q-3.5 3.5 -3.5 8.5v56q0 5 3.5 8.5t8.5 3.5h261q5 0 8.5 -3.5t3.5 -8.5v-56q0 -5 -3.5 -8.5t-8.5 -3.5h-261q-5 0 -8.5 3.5z" />
    <glyph glyph-name="umacron" unicode="&#x16b;" 
d="M367.5 507.5q3.5 3.5 8.5 3.5h91q5 0 8.5 -3.5t3.5 -8.5v-487q0 -5 -3.5 -8.5t-8.5 -3.5h-91q-5 0 -8.5 3.5t-3.5 8.5v32q0 3 -2 4t-4 -2q-41 -53 -123 -53q-76 0 -127.5 44t-51.5 125v337q0 5 3.5 8.5t8.5 3.5h92q5 0 8.5 -3.5t3.5 -8.5v-304q0 -47 24.5 -75t68.5 -28
q45 0 72 28t27 75v304q0 5 3.5 8.5zM132.5 586.5q-3.5 3.5 -3.5 8.5v56q0 5 3.5 8.5t8.5 3.5h261q5 0 8.5 -3.5t3.5 -8.5v-56q0 -5 -3.5 -8.5t-8.5 -3.5h-261q-5 0 -8.5 3.5z" />
    <glyph glyph-name="Ubreve" unicode="&#x16c;" horiz-adv-x="636" 
d="M187 21q-57 29 -88.5 82.5t-31.5 123.5v461q0 5 3.5 8.5t8.5 3.5h92q5 0 8.5 -3.5t3.5 -8.5v-463q0 -59 37 -96t98 -37t98 37t37 96v463q0 5 3.5 8.5t8.5 3.5h92q5 0 8.5 -3.5t3.5 -8.5v-461q0 -70 -31 -123.5t-88 -82.5t-132 -29q-74 0 -131 29zM219 791q-41 30 -46 77
v2q0 10 11 10h48q10 0 12 -11q5 -23 25.5 -37t48.5 -14q29 0 50 14t26 37q2 11 12 11h46q13 0 11 -10q-5 -48 -45 -78.5t-100 -30.5q-58 0 -99 30z" />
    <glyph glyph-name="ubreve" unicode="&#x16d;" 
d="M367.5 507.5q3.5 3.5 8.5 3.5h91q5 0 8.5 -3.5t3.5 -8.5v-487q0 -5 -3.5 -8.5t-8.5 -3.5h-91q-5 0 -8.5 3.5t-3.5 8.5v32q0 3 -2 4t-4 -2q-41 -53 -123 -53q-76 0 -127.5 44t-51.5 125v337q0 5 3.5 8.5t8.5 3.5h92q5 0 8.5 -3.5t3.5 -8.5v-304q0 -47 24.5 -75t68.5 -28
q45 0 72 28t27 75v304q0 5 3.5 8.5zM172 602q-41 30 -46 77v2q0 10 11 10h48q10 0 12 -11q5 -23 25.5 -37t48.5 -14q29 0 50 14t26 37q2 11 12 11h46q13 0 11 -10q-5 -48 -45 -78.5t-100 -30.5q-58 0 -99 30z" />
    <glyph glyph-name="Uring" unicode="&#x16e;" horiz-adv-x="636" 
d="M187 21q-57 29 -88.5 82.5t-31.5 123.5v461q0 5 3.5 8.5t8.5 3.5h92q5 0 8.5 -3.5t3.5 -8.5v-463q0 -59 37 -96t98 -37t98 37t37 96v463q0 5 3.5 8.5t8.5 3.5h92q5 0 8.5 -3.5t3.5 -8.5v-461q0 -70 -31 -123.5t-88 -82.5t-132 -29q-74 0 -131 29zM232.5 791.5
q-34.5 34.5 -34.5 84.5t34.5 84t85.5 34q50 0 84.5 -34t34.5 -84t-34.5 -84.5t-84.5 -34.5q-51 0 -85.5 34.5zM357.5 836q16.5 16 16.5 40t-16.5 40t-39.5 16t-39.5 -16t-16.5 -40q0 -23 16.5 -39.5t39.5 -16.5t39.5 16z" />
    <glyph glyph-name="uring" unicode="&#x16f;" 
d="M367.5 507.5q3.5 3.5 8.5 3.5h91q5 0 8.5 -3.5t3.5 -8.5v-487q0 -5 -3.5 -8.5t-8.5 -3.5h-91q-5 0 -8.5 3.5t-3.5 8.5v32q0 3 -2 4t-4 -2q-41 -53 -123 -53q-76 0 -127.5 44t-51.5 125v337q0 5 3.5 8.5t8.5 3.5h92q5 0 8.5 -3.5t3.5 -8.5v-304q0 -47 24.5 -75t68.5 -28
q45 0 72 28t27 75v304q0 5 3.5 8.5zM185.5 602.5q-34.5 34.5 -34.5 84.5t34.5 84t85.5 34q50 0 84.5 -34t34.5 -84t-34.5 -84.5t-84.5 -34.5q-51 0 -85.5 34.5zM310.5 647q16.5 16 16.5 40t-16.5 40t-39.5 16t-39.5 -16t-16.5 -40q0 -23 16.5 -39.5t39.5 -16.5t39.5 16z" />
    <glyph glyph-name="Uhungarumlaut" unicode="&#x170;" horiz-adv-x="636" 
d="M187 21q-57 29 -88.5 82.5t-31.5 123.5v461q0 5 3.5 8.5t8.5 3.5h92q5 0 8.5 -3.5t3.5 -8.5v-463q0 -59 37 -96t98 -37t98 37t37 96v463q0 5 3.5 8.5t8.5 3.5h92q5 0 8.5 -3.5t3.5 -8.5v-461q0 -70 -31 -123.5t-88 -82.5t-132 -29q-74 0 -131 29zM186.5 767.5
q-2.5 3.5 0.5 10.5l50 102q4 9 14 9h81q7 0 9 -4t-1 -10l-54 -102q-5 -9 -15 -9h-75q-7 0 -9.5 3.5zM360 768q-2 4 1 10l54 102q4 9 15 9h75q7 0 9 -4t-1 -10l-55 -103q-4 -8 -15 -8h-74q-7 0 -9 4z" />
    <glyph glyph-name="uhungarumlaut" unicode="&#x171;" 
d="M367.5 507.5q3.5 3.5 8.5 3.5h91q5 0 8.5 -3.5t3.5 -8.5v-487q0 -5 -3.5 -8.5t-8.5 -3.5h-91q-5 0 -8.5 3.5t-3.5 8.5v32q0 3 -2 4t-4 -2q-41 -53 -123 -53q-76 0 -127.5 44t-51.5 125v337q0 5 3.5 8.5t8.5 3.5h92q5 0 8.5 -3.5t3.5 -8.5v-304q0 -47 24.5 -75t68.5 -28
q45 0 72 28t27 75v304q0 5 3.5 8.5zM139.5 578.5q-2.5 3.5 0.5 10.5l50 102q4 9 14 9h81q7 0 9 -4t-1 -10l-54 -102q-5 -9 -15 -9h-75q-7 0 -9.5 3.5zM313 579q-2 4 1 10l54 102q4 9 15 9h75q7 0 9 -4t-1 -10l-55 -103q-4 -8 -15 -8h-74q-7 0 -9 4z" />
    <glyph glyph-name="Uogonek" unicode="&#x172;" horiz-adv-x="636" 
d="M456.5 696.5q3.5 3.5 8.5 3.5h92q5 0 8.5 -3.5t3.5 -8.5v-461q0 -98 -59 -160.5t-159 -73.5q-2 0 -6 -2q-40 -37 -40 -65q0 -19 11 -28.5t29 -9.5q10 0 19 3q3 1 7 1q7 0 8 -9l5 -38v-4q0 -7 -8 -11q-24 -8 -53 -8q-33 0 -58.5 14.5t-34.5 47.5q-3 12 -3 23q0 41 39 83
q4 4 -2 6q-91 15 -144 76.5t-53 154.5v461q0 5 3.5 8.5t8.5 3.5h92q5 0 8.5 -3.5t3.5 -8.5v-463q0 -59 37 -96t98 -37t98 37t37 96v463q0 5 3.5 8.5z" />
    <glyph glyph-name="uogonek" unicode="&#x173;" 
d="M480 -119q8 0 9 -10l6 -38v-4q0 -7 -8 -11q-24 -8 -54 -8q-33 0 -58.5 14.5t-33.5 47.5q-3 12 -3 24q0 52 56 98q3 2 2 4t-4 2h-16q-5 0 -8.5 3.5t-3.5 8.5v32q0 3 -2 4t-4 -2q-41 -53 -123 -53q-76 0 -127.5 44t-51.5 125v337q0 5 3.5 8.5t8.5 3.5h92q5 0 8.5 -3.5
t3.5 -8.5v-304q0 -47 24.5 -75t68.5 -28q45 0 72 28t27 75v304q0 5 3.5 8.5t8.5 3.5h91q5 0 8.5 -3.5t3.5 -8.5v-496q0 -4 -2 -6l-14 -12q-47 -37 -47 -71q0 -19 10.5 -28t28.5 -9q9 0 20 3z" />
    <glyph glyph-name="Wcircumflex" unicode="&#x174;" horiz-adv-x="912" 
d="M208 10l-182 677l-1 4q0 9 11 9h98q11 0 14 -10l114 -456q1 -3 3 -3t3 3l109 456q3 10 13 10h96q11 0 14 -10l116 -457q1 -3 3 -3t3 3l112 457q3 10 14 10h93q14 0 11 -13l-173 -677q-3 -10 -14 -10h-93q-11 0 -14 10l-117 477q-1 3 -3 3.5t-3 -3.5l-112 -477
q-3 -10 -13 -10h-88q-11 0 -14 10zM310 766.5q-2 4.5 2 10.5l76 105q5 7 14 7h105q9 0 14 -7l76 -105q3 -4 3 -8q0 -7 -10 -7h-70q-9 0 -14 8l-47 67q-2 2 -4 2t-3 -2l-47 -67q-5 -8 -14 -8h-71q-8 0 -10 4.5z" />
    <glyph glyph-name="wcircumflex" unicode="&#x175;" horiz-adv-x="761" 
d="M169 10l-143 488l-1 4q0 10 11 10h95q11 0 14 -10l83 -334q1 -3 3 -3t3 3l87 334q3 10 14 10h83q11 0 14 -10l89 -334q1 -3 3 -3t3 3l89 334q3 10 14 10l94 -2q6 0 8.5 -3.5t1.5 -9.5l-144 -487q-3 -10 -13 -10h-96q-11 0 -14 10l-88 305q-1 3 -3 3t-3 -3l-81 -305
q-3 -10 -14 -10h-95q-11 0 -14 10zM230 577.5q-2 4.5 2 10.5l76 105q5 7 14 7h105q9 0 14 -7l76 -105q3 -4 3 -8q0 -7 -10 -7h-70q-9 0 -14 8l-47 67q-2 2 -4 2t-3 -2l-47 -67q-5 -8 -14 -8h-71q-8 0 -10 4.5z" />
    <glyph glyph-name="Ycircumflex" unicode="&#x176;" horiz-adv-x="599" 
d="M244.5 4.5q-3.5 3.5 -3.5 8.5v268q0 4 -1 6l-206 399q-2 4 -2 6q0 8 11 8h99q10 0 14 -9l140 -279q3 -4 6 0l141 279q5 9 14 9h100q7 0 9.5 -4t-0.5 -10l-207 -399q-2 -4 -2 -6v-268q0 -5 -3.5 -8.5t-8.5 -3.5h-92q-5 0 -8.5 3.5zM154 765.5q-2 4.5 2 10.5l76 105
q5 7 14 7h105q9 0 14 -7l76 -105q3 -4 3 -8q0 -7 -10 -7h-70q-9 0 -14 8l-47 67q-2 2 -4 2t-3 -2l-47 -67q-5 -8 -14 -8h-71q-8 0 -10 4.5z" />
    <glyph glyph-name="ycircumflex" unicode="&#x177;" horiz-adv-x="489" 
d="M47 -195.5q-2 3.5 -2 8.5v72q0 5 3.5 8.5t8.5 3.5h1q41 1 64 8.5t38 28.5t27 63q1 2 0 6l-165 495q-1 2 -1 5q0 9 10 9h98q11 0 14 -10l100 -352q1 -3 3 -3t3 3l100 352q3 10 14 10h95q6 0 8.5 -3.5t0.5 -10.5l-176 -526q-25 -71 -49 -106t-65.5 -50t-117.5 -15h-7
q-3 0 -5 3.5zM98 584.5q-2 4.5 2 10.5l76 105q5 7 14 7h105q9 0 14 -7l76 -105q3 -4 3 -8q0 -7 -10 -7h-70q-9 0 -14 8l-47 67q-2 2 -4 2t-3 -2l-47 -67q-5 -8 -14 -8h-71q-8 0 -10 4.5z" />
    <glyph glyph-name="Ydieresis" unicode="&#x178;" horiz-adv-x="599" 
d="M244.5 4.5q-3.5 3.5 -3.5 8.5v268q0 4 -1 6l-206 399q-2 4 -2 6q0 8 11 8h99q10 0 14 -9l140 -279q3 -4 6 0l141 279q5 9 14 9h100q7 0 9.5 -4t-0.5 -10l-207 -399q-2 -4 -2 -6v-268q0 -5 -3.5 -8.5t-8.5 -3.5h-92q-5 0 -8.5 3.5zM344 794q-20 20 -20 51t20 51t51 20
t50.5 -20t19.5 -51t-20 -51t-50 -20q-31 0 -51 20zM154 794q-20 20 -20 51t20 51t51 20t50.5 -20t19.5 -51t-20 -51t-50 -20q-31 0 -51 20z" />
    <glyph glyph-name="Zacute" unicode="&#x179;" horiz-adv-x="554" 
d="M40.5 3.5q-3.5 3.5 -3.5 8.5v85q0 7 5 15l337 482q2 2 1 4t-4 2h-327q-5 0 -8.5 3.5t-3.5 8.5v76q0 5 3.5 8.5t8.5 3.5h450q5 0 8.5 -3.5t3.5 -8.5v-85q0 -7 -5 -15l-337 -482q-2 -2 -1 -4t4 -2h327q5 0 8.5 -3.5t3.5 -8.5v-76q0 -5 -3.5 -8.5t-8.5 -3.5h-450
q-5 0 -8.5 3.5zM218 768q-2 4 1 10l55 103q4 8 15 8h79q7 0 9.5 -4.5t-1.5 -10.5l-69 -102q-5 -8 -14 -8h-66q-7 0 -9 4z" />
    <glyph glyph-name="zacute" unicode="&#x17a;" horiz-adv-x="455" 
d="M31.5 3.5q-3.5 3.5 -3.5 8.5v85q0 9 5 14l246 289q5 6 -3 6h-231q-5 0 -8.5 3.5t-3.5 8.5v81q0 5 3.5 8.5t8.5 3.5h364q5 0 8.5 -3.5t3.5 -8.5v-85q0 -8 -6 -14l-251 -289q-4 -6 3 -6h245q5 0 8.5 -3.5t3.5 -8.5v-81q0 -5 -3.5 -8.5t-8.5 -3.5h-372q-5 0 -8.5 3.5z
M169 579q-2 4 1 10l55 103q4 8 15 8h79q7 0 9.5 -4.5t-1.5 -10.5l-69 -102q-5 -8 -14 -8h-66q-7 0 -9 4z" />
    <glyph glyph-name="Zdotaccent" unicode="&#x17b;" horiz-adv-x="554" 
d="M40.5 3.5q-3.5 3.5 -3.5 8.5v85q0 7 5 15l337 482q2 2 1 4t-4 2h-327q-5 0 -8.5 3.5t-3.5 8.5v76q0 5 3.5 8.5t8.5 3.5h450q5 0 8.5 -3.5t3.5 -8.5v-85q0 -7 -5 -15l-337 -482q-2 -2 -1 -4t4 -2h327q5 0 8.5 -3.5t3.5 -8.5v-76q0 -5 -3.5 -8.5t-8.5 -3.5h-450
q-5 0 -8.5 3.5zM223 790q-20 20 -20 51t20 51t51 20t50.5 -20t19.5 -51t-20 -51t-50 -20q-31 0 -51 20z" />
    <glyph glyph-name="zdotaccent" unicode="&#x17c;" horiz-adv-x="455" 
d="M31.5 3.5q-3.5 3.5 -3.5 8.5v85q0 9 5 14l246 289q5 6 -3 6h-231q-5 0 -8.5 3.5t-3.5 8.5v81q0 5 3.5 8.5t8.5 3.5h364q5 0 8.5 -3.5t3.5 -8.5v-85q0 -8 -6 -14l-251 -289q-4 -6 3 -6h245q5 0 8.5 -3.5t3.5 -8.5v-81q0 -5 -3.5 -8.5t-8.5 -3.5h-372q-5 0 -8.5 3.5z
M174 601q-20 20 -20 51t20 51t51 20t50.5 -20t19.5 -51t-20 -51t-50 -20q-31 0 -51 20z" />
    <glyph glyph-name="Zcaron" unicode="&#x17d;" horiz-adv-x="554" 
d="M40.5 3.5q-3.5 3.5 -3.5 8.5v85q0 7 5 15l337 482q2 2 1 4t-4 2h-327q-5 0 -8.5 3.5t-3.5 8.5v76q0 5 3.5 8.5t8.5 3.5h450q5 0 8.5 -3.5t3.5 -8.5v-85q0 -7 -5 -15l-337 -482q-2 -2 -1 -4t4 -2h327q5 0 8.5 -3.5t3.5 -8.5v-76q0 -5 -3.5 -8.5t-8.5 -3.5h-450
q-5 0 -8.5 3.5zM133 881q0 8 11 8h71q9 0 14 -8l47 -68q2 -2 4 -2t3 2l47 68q5 8 14 8h70q10 0 10 -7q0 -3 -3 -8l-76 -105q-5 -7 -14 -7h-105q-9 0 -14 7l-76 105q-3 5 -3 7z" />
    <glyph glyph-name="zcaron" unicode="&#x17e;" horiz-adv-x="455" 
d="M31.5 3.5q-3.5 3.5 -3.5 8.5v85q0 9 5 14l246 289q5 6 -3 6h-231q-5 0 -8.5 3.5t-3.5 8.5v81q0 5 3.5 8.5t8.5 3.5h364q5 0 8.5 -3.5t3.5 -8.5v-85q0 -8 -6 -14l-251 -289q-4 -6 3 -6h245q5 0 8.5 -3.5t3.5 -8.5v-81q0 -5 -3.5 -8.5t-8.5 -3.5h-372q-5 0 -8.5 3.5z
M83 692q0 8 11 8h71q9 0 14 -8l47 -68q2 -2 4 -2t3 2l47 68q5 8 14 8h70q10 0 10 -7q0 -3 -3 -8l-76 -105q-5 -7 -14 -7h-105q-9 0 -14 7l-76 105q-3 5 -3 7z" />
    <glyph glyph-name="uni018F" unicode="&#x18f;" horiz-adv-x="632" 
d="M576 308q0 -47 -3 -79t-11 -60q-24 -82 -89 -130.5t-157 -48.5q-110 0 -177.5 60.5t-83.5 164.5q-5 33 -5 85v42q0 12 12 12h394q5 0 5 5q-3 48 -13 74q-15 47 -53.5 74t-97.5 27q-48 0 -85 -22t-60 -61q-6 -12 -16 -4l-65 50q-5 3 -5 9q0 5 2 8q34 57 94 88t140 31
q95 0 160.5 -44.5t93.5 -125.5q20 -59 20 -155zM403.5 118q35.5 28 47.5 75q8 23 9 57q0 5 -5 5h-283q-5 0 -5 -5q2 -32 8 -53q11 -49 48 -78t92 -29q53 0 88.5 28z" />
    <glyph glyph-name="florin" unicode="&#x192;" horiz-adv-x="551" 
d="M294 641.5q24 34.5 71 47t138 11.5q12 0 12 -12v-70q0 -5 -3.5 -8.5t-8.5 -3.5h-41q-43 0 -61.5 -17.5t-26.5 -63.5l-15 -93q0 -5 4 -5h77q5 0 8.5 -3.5t3.5 -8.5v-79q0 -5 -3.5 -8.5t-8.5 -3.5h-93q-6 0 -6 -5l-56 -354q-11 -71 -35 -106t-71.5 -47.5t-137.5 -11.5
q-12 0 -12 12v70q0 5 3.5 8.5t8.5 3.5h41q42 0 61.5 17t26.5 64l54 344q0 5 -4 5h-67q-5 0 -8.5 3.5t-3.5 8.5v79q0 5 3.5 8.5t8.5 3.5h84q6 0 6 5l16 103q11 72 35 106.5z" />
    <glyph glyph-name="Ohorn" unicode="&#x1a0;" horiz-adv-x="621" 
d="M609 773q-4 -53 -34.5 -85.5t-74.5 -43.5q-3 0 -3.5 -2t1.5 -4q33 -33 50 -77t17 -97v-228q0 -73 -32 -129t-89.5 -86.5t-133.5 -30.5q-75 0 -133 30.5t-89.5 86.5t-31.5 129v228q0 72 32 127.5t89.5 86t132.5 30.5q79 0 139 -34q6 -3 6 4v10q0 11 11 13q27 3 47 20
t23 52q2 12 13 12h48q12 0 12 -12zM449 465q0 65 -38 104t-101 39q-62 0 -100 -39t-38 -104v-233q0 -64 38 -103t100 -39q63 0 101 39t38 103v233z" />
    <glyph glyph-name="ohorn" unicode="&#x1a1;" horiz-adv-x="545" 
d="M508 258q0 -63 -17 -114q-23 -71 -79 -111.5t-133 -40.5q-79 0 -135.5 40t-79.5 111q-17 54 -17 114q0 64 16 114q23 70 80 109t137 39q23 0 59 -6q2 -1 6 -1q26 4 45 20.5t22 51.5q2 12 13 12h49q12 0 12 -12q-6 -72 -61 -107q-4 -3 -1 -6q46 -39 66 -99q18 -48 18 -114
zM391 256q0 54 -10 84q-11 38 -38 58.5t-66 20.5q-37 0 -64 -20.5t-39 -58.5q-10 -35 -10 -84t10 -84q11 -38 38.5 -59t66.5 -21q37 0 63.5 21t38.5 59q10 33 10 84z" />
    <glyph glyph-name="Uhorn" unicode="&#x1af;" horiz-adv-x="636" 
d="M693 773q-4 -56 -37.5 -89t-81.5 -42q-5 -2 -5 -6v-409q0 -70 -31 -123.5t-88 -82.5t-132 -29q-74 0 -131 29t-88.5 82.5t-31.5 123.5v461q0 5 3.5 8.5t8.5 3.5h92q5 0 8.5 -3.5t3.5 -8.5v-463q0 -59 37 -96t98 -37t98 37t37 96v463q0 5 3.5 8.5t8.5 3.5h74q29 0 53 16.5
t27 56.5q2 12 13 12h49q12 0 12 -12z" />
    <glyph glyph-name="uhorn" unicode="&#x1b0;" 
d="M582 584q-4 -49 -31 -80.5t-68 -44.5q-4 -1 -4 -5v-442q0 -5 -3.5 -8.5t-8.5 -3.5h-91q-5 0 -8.5 3.5t-3.5 8.5v32q0 3 -2 4t-4 -2q-41 -53 -123 -53q-76 0 -127.5 44t-51.5 125v337q0 5 3.5 8.5t8.5 3.5h92q5 0 8.5 -3.5t3.5 -8.5v-304q0 -47 24.5 -75t68.5 -28
q45 0 72 28t27 75v304q0 5 3.5 8.5t8.5 3.5h52q29 0 53.5 16.5t27.5 56.5q2 12 13 12h48q12 0 12 -12z" />
    <glyph glyph-name="uni01CD" unicode="&#x1cd;" horiz-adv-x="648" 
d="M494 10l-33 107q-2 4 -5 4h-264q-3 0 -5 -4l-33 -107q-3 -10 -13 -10h-100q-6 0 -9 3.5t-1 10.5l217 676q3 10 13 10h125q10 0 13 -10l218 -676q1 -2 1 -5q0 -9 -11 -9h-100q-10 0 -13 10zM222 212h203q6 0 4 6l-103 335q-1 4 -3 4t-3 -4l-102 -335q-1 -6 4 -6zM181 879
q0 8 11 8h71q9 0 14 -8l47 -68q2 -2 4 -2t3 2l47 68q5 8 14 8h70q10 0 10 -7q0 -3 -3 -8l-76 -105q-5 -7 -14 -7h-105q-9 0 -14 7l-76 105q-3 5 -3 7z" />
    <glyph glyph-name="uni01CE" unicode="&#x1ce;" horiz-adv-x="522" 
d="M368 497q48 -22 74 -60.5t26 -87.5v-337q0 -5 -3.5 -8.5t-8.5 -3.5h-92q-5 0 -8.5 3.5t-3.5 8.5v32q0 3 -2 3.5t-4 -1.5q-49 -54 -142 -54q-75 0 -123.5 38t-48.5 113q0 78 54.5 121.5t153.5 43.5h107q5 0 5 5v24q0 39 -23 60.5t-69 21.5q-38 0 -61.5 -13.5t-29.5 -37.5
q-3 -12 -14 -10l-97 12q-5 1 -8.5 3.5t-2.5 6.5q8 61 65.5 100t144.5 39q63 0 111 -22zM317 110q35 26 35 66v47q0 5 -5 5h-84q-53 0 -83.5 -20t-30.5 -57q0 -32 23.5 -49.5t60.5 -17.5q49 0 84 26zM119 691q0 8 11 8h71q9 0 14 -8l47 -68q2 -2 4 -2t3 2l47 68q5 8 14 8h70
q10 0 10 -7q0 -3 -3 -8l-76 -105q-5 -7 -14 -7h-105q-9 0 -14 7l-76 105q-3 5 -3 7z" />
    <glyph glyph-name="uni01D4" unicode="&#x1d4;" 
d="M367.5 507.5q3.5 3.5 8.5 3.5h91q5 0 8.5 -3.5t3.5 -8.5v-487q0 -5 -3.5 -8.5t-8.5 -3.5h-91q-5 0 -8.5 3.5t-3.5 8.5v32q0 3 -2 4t-4 -2q-41 -53 -123 -53q-76 0 -127.5 44t-51.5 125v337q0 5 3.5 8.5t8.5 3.5h92q5 0 8.5 -3.5t3.5 -8.5v-304q0 -47 24.5 -75t68.5 -28
q45 0 72 28t27 75v304q0 5 3.5 8.5zM129 691q0 8 11 8h71q9 0 14 -8l47 -68q2 -2 4 -2t3 2l47 68q5 8 14 8h70q10 0 10 -7q0 -3 -3 -8l-76 -105q-5 -7 -14 -7h-105q-9 0 -14 7l-76 105q-3 5 -3 7z" />
    <glyph glyph-name="uni01E5" unicode="&#x1e5;" horiz-adv-x="572" 
d="M570.5 291.5q3.5 -3.5 3.5 -8.5v-48q0 -5 -3.5 -8.5t-8.5 -3.5h-66q-5 0 -5 -5v-184q0 -125 -71.5 -178.5t-187.5 -53.5q-31 0 -61 3q-11 1 -11 13l3 82q0 11 14 11q29 -3 52 -3q75 0 110.5 29.5t35.5 99.5v8q0 3 -2 3.5t-4 -1.5q-41 -44 -116 -44q-65 0 -119 33t-75 101
q-13 47 -13 121q0 83 16 127q20 61 69 97.5t115 36.5q79 0 123 -46q2 -3 4 -2t2 4v24q0 5 3.5 8.5t8.5 3.5h92q5 0 8.5 -3.5t3.5 -8.5v-199q0 -5 5 -5h66q5 0 8.5 -3.5zM336 118q24 20 32 52q6 19 7 48q0 5 -5 5h-105q-5 0 -8.5 3.5t-3.5 8.5v48q0 5 3.5 8.5t8.5 3.5h104
q5 0 5 5q0 23 -7 46q-8 33 -32.5 53t-62.5 20q-36 0 -61 -20t-36 -53q-12 -28 -12 -88q0 -62 10 -87q10 -32 36.5 -52.5t63.5 -20.5q39 0 63 20z" />
    <glyph glyph-name="gcaron" unicode="&#x1e7;" horiz-adv-x="548" 
d="M378.5 507.5q3.5 3.5 8.5 3.5h92q5 0 8.5 -3.5t3.5 -8.5v-465q0 -125 -71.5 -178.5t-187.5 -53.5q-31 0 -61 3q-11 1 -11 13l3 82q0 11 14 11q29 -3 52 -3q75 0 110.5 29.5t35.5 99.5v8q0 3 -2 3.5t-4 -1.5q-41 -44 -116 -44q-65 0 -119 33t-75 101q-13 47 -13 121
q0 83 16 127q20 61 69 97.5t115 36.5q79 0 123 -46q2 -3 4 -2t2 4v24q0 5 3.5 8.5zM373.5 202.5q1.5 17.5 1.5 56.5q0 38 -1.5 54.5t-6.5 32.5q-8 33 -32.5 53t-62.5 20q-36 0 -61 -20t-36 -53q-12 -28 -12 -88q0 -62 10 -87q10 -32 36.5 -52.5t63.5 -20.5q39 0 63 20t32 52
q4 15 5.5 32.5zM143 691q0 8 11 8h71q9 0 14 -8l47 -68q2 -2 4 -2t3 2l47 68q5 8 14 8h70q10 0 10 -7q0 -3 -3 -8l-76 -105q-5 -7 -14 -7h-105q-9 0 -14 7l-76 105q-3 5 -3 7z" />
    <glyph glyph-name="uni01E9" unicode="&#x1e9;" horiz-adv-x="522" 
d="M65.5 3.5q-3.5 3.5 -3.5 8.5v676q0 5 3.5 8.5t8.5 3.5h92q5 0 8.5 -3.5t3.5 -8.5v-361q0 -3 2 -4t4 2l162 179q7 7 15 7h106q10 0 10 -7q0 -3 -3 -8l-127 -152q-3 -3 -1 -7l150 -323q2 -4 2 -6q0 -8 -11 -8h-97q-10 0 -14 9l-109 254q-1 2 -3.5 2.5t-3.5 -1.5l-80 -92
q-2 -4 -2 -7v-153q0 -5 -3.5 -8.5t-8.5 -3.5h-92q-5 0 -8.5 3.5zM112 879q0 8 11 8h71q9 0 14 -8l47 -68q2 -2 4 -2t3 2l47 68q5 8 14 8h70q10 0 10 -7q0 -3 -3 -8l-76 -105q-5 -7 -14 -7h-105q-9 0 -14 7l-76 105q-3 5 -3 7z" />
    <glyph glyph-name="uni01EF" unicode="&#x1ef;" horiz-adv-x="511" 
d="M259 267q107 -15 156 -78.5t49 -147.5q0 -76 -37 -130.5t-100 -82.5t-140 -28q-63 0 -131 20q-9 3 -9 14l3 78q0 6 4 9t10 1q63 -18 117 -18q76 0 121.5 35t45.5 102q0 60 -38 103t-106 43q-40 0 -91 -18q-6 -2 -7 -2q-6 0 -10 7l-30 48q-2 6 -2 7q0 5 5 10l193 161
q2 2 1 4t-4 2h-198q-5 0 -8.5 3.5t-3.5 8.5v81q0 5 3.5 8.5t8.5 3.5h348q5 0 8.5 -3.5t3.5 -8.5v-78q0 -9 -7 -15l-158 -133q-4 -4 3 -6zM100 691q0 8 11 8h71q9 0 14 -8l47 -68q2 -2 4 -2t3 2l47 68q5 8 14 8h70q10 0 10 -7q0 -3 -3 -8l-76 -105q-5 -7 -14 -7h-105
q-9 0 -14 7l-76 105q-3 5 -3 7z" />
    <glyph glyph-name="oslashacute" unicode="&#x1ff;" horiz-adv-x="532" 
d="M452 427q17 -26 27 -55q18 -48 18 -114q0 -63 -17 -114q-23 -71 -79 -111.5t-133 -40.5q-56 0 -103 21q-4 1 -7 -2l-35 -51q-3 -5 -9 -5q-4 0 -8 3l-64 52q-5 5 -5 9t3 8l38 55q1 3 0 7q-14 22 -25 54q-17 49 -17 114q0 64 16 114q23 70 80 109t137 39q55 0 96 -19
q4 -1 7 2l36 52q3 5 9 5q3 0 8 -3l64 -51q5 -5 5 -9q0 -3 -3 -8l-39 -55q-1 -3 0 -6zM157 205q0 -4 2 -4t4 2l142 203q3 5 -2 7q-16 6 -37 6q-38 0 -65 -20.5t-38 -58.5q-10 -35 -10 -84q0 -30 4 -51zM380 256q0 34 -4 57q-1 3 -3 3t-4 -2l-144 -208q-3 -5 2 -7q17 -7 41 -7
q37 0 63.5 21t37.5 59q11 32 11 84zM210 579q-2 4 1 10l55 103q4 8 15 8h79q7 0 9.5 -4.5t-1.5 -10.5l-69 -102q-5 -8 -14 -8h-66q-7 0 -9 4z" />
    <glyph glyph-name="uni0218" unicode="&#x218;" horiz-adv-x="591" 
d="M163 17q-58 25 -89.5 70t-31.5 106v25q0 5 3.5 8.5t8.5 3.5h89q5 0 8.5 -3.5t3.5 -8.5v-19q0 -46 41 -76.5t112 -30.5q61 0 92 26t31 67q0 28 -17 47.5t-48.5 35.5t-94.5 40q-71 26 -115 49t-73.5 62.5t-29.5 98.5q0 88 64 139t171 51q75 0 132.5 -26t89.5 -72.5
t32 -107.5v-17q0 -5 -3.5 -8.5t-8.5 -3.5h-90q-5 0 -8.5 3.5t-3.5 8.5v11q0 47 -38.5 79.5t-106.5 32.5q-55 0 -85.5 -23t-30.5 -65q0 -30 16 -49t48 -34.5t99 -39.5q71 -27 113.5 -49t73 -61.5t30.5 -98.5q0 -90 -66.5 -143t-181.5 -53q-78 0 -136 25zM202 -184q-2 4 1 10
l55 103q4 8 15 8h79q7 0 9.5 -4.5t-1.5 -10.5l-69 -102q-5 -8 -14 -8h-66q-7 0 -9 4z" />
    <glyph glyph-name="uni0219" unicode="&#x219;" horiz-adv-x="497" 
d="M141.5 12.5q-47.5 18.5 -73.5 51t-26 72.5v9q0 5 3.5 8.5t8.5 3.5h88q5 0 8.5 -3.5t3.5 -8.5v-2q0 -25 27.5 -43.5t69.5 -18.5q40 0 65 16.5t25 41.5q0 23 -20.5 34.5t-66.5 24.5l-38 12q-51 15 -86 32t-59 46.5t-24 75.5q0 70 55 111.5t145 41.5q61 0 107 -19.5t71 -54
t25 -78.5q0 -5 -3.5 -8.5t-8.5 -3.5h-85q-5 0 -8.5 3.5t-3.5 8.5q0 26 -25.5 43.5t-69.5 17.5q-39 0 -63.5 -14.5t-24.5 -40.5q0 -24 23.5 -36.5t78.5 -27.5l22 -6q53 -16 89 -32.5t61 -46t25 -76.5q0 -71 -56 -111.5t-149 -40.5q-63 0 -110.5 18.5zM161 -182q-2 4 1 10
l55 103q4 8 15 8h79q7 0 9.5 -4.5t-1.5 -10.5l-69 -102q-5 -8 -14 -8h-66q-7 0 -9 4z" />
    <glyph glyph-name="uni021A" unicode="&#x21a;" horiz-adv-x="579" 
d="M541.5 696.5q3.5 -3.5 3.5 -8.5v-77q0 -5 -3.5 -8.5t-8.5 -3.5h-184q-5 0 -5 -5v-582q0 -5 -3.5 -8.5t-8.5 -3.5h-92q-5 0 -8.5 3.5t-3.5 8.5v582q0 5 -5 5h-177q-5 0 -8.5 3.5t-3.5 8.5v77q0 5 3.5 8.5t8.5 3.5h487q5 0 8.5 -3.5zM171 -176q-2 4 1 10l55 103q4 8 15 8
h79q7 0 9.5 -4.5t-1.5 -10.5l-69 -102q-5 -8 -14 -8h-66q-7 0 -9 4z" />
    <glyph glyph-name="uni021B" unicode="&#x21b;" horiz-adv-x="374" 
d="M329.5 420.5q-3.5 -3.5 -8.5 -3.5h-102q-5 0 -5 -5v-241q0 -38 16.5 -55t52.5 -17h30q5 0 8.5 -3.5t3.5 -8.5v-75q0 -11 -12 -13l-52 -1q-79 0 -118 27t-40 102v285q0 5 -5 5h-57q-5 0 -8.5 3.5t-3.5 8.5v70q0 5 3.5 8.5t8.5 3.5h57q5 0 5 5v117q0 5 3.5 8.5t8.5 3.5h87
q5 0 8.5 -3.5t3.5 -8.5v-117q0 -5 5 -5h102q5 0 8.5 -3.5t3.5 -8.5v-70q0 -5 -3.5 -8.5zM148 -173q-2 4 1 10l55 103q4 8 15 8h79q7 0 9.5 -4.5t-1.5 -10.5l-69 -102q-5 -8 -14 -8h-66q-7 0 -9 4z" />
    <glyph glyph-name="uni021F" unicode="&#x21f;" 
d="M436.5 471q48.5 -48 48.5 -131v-328q0 -5 -3.5 -8.5t-8.5 -3.5h-92q-5 0 -8.5 3.5t-3.5 8.5v304q0 46 -26 74.5t-69 28.5t-69.5 -28t-26.5 -74v-305q0 -5 -3.5 -8.5t-8.5 -3.5h-92q-5 0 -8.5 3.5t-3.5 8.5v676q0 5 3.5 8.5t8.5 3.5h92q5 0 8.5 -3.5t3.5 -8.5v-221
q0 -3 2 -4t3 2q41 54 124 54q81 0 129.5 -48zM120 879q0 8 11 8h71q9 0 14 -8l47 -68q2 -2 4 -2t3 2l47 68q5 8 14 8h70q10 0 10 -7q0 -3 -3 -8l-76 -105q-5 -7 -14 -7h-105q-9 0 -14 7l-76 105q-3 5 -3 7z" />
    <glyph glyph-name="uni0228" unicode="&#x228;" horiz-adv-x="592" 
d="M543.5 603.5q-3.5 -3.5 -8.5 -3.5h-341q-5 0 -5 -5v-187q0 -5 5 -5h229q5 0 8.5 -3.5t3.5 -8.5v-76q0 -5 -3.5 -8.5t-8.5 -3.5h-229q-5 0 -5 -5v-193q0 -5 5 -5h341q5 0 8.5 -3.5t3.5 -8.5v-76q0 -5 -3.5 -8.5t-8.5 -3.5h-168q-3 0 -4 -2t2 -4q42 -42 42 -86
q0 -13 -3 -23q-9 -33 -34 -47.5t-58 -14.5q-30 0 -54 8q-9 4 -8 15l5 38q1 13 15 8q11 -3 19 -3q17 0 28 10t11 29q0 32 -46 70q-4 2 -6 2h-191q-5 0 -8.5 3.5t-3.5 8.5v676q0 5 3.5 8.5t8.5 3.5h450q5 0 8.5 -3.5t3.5 -8.5v-76q0 -5 -3.5 -8.5z" />
    <glyph glyph-name="uni0229" unicode="&#x229;" horiz-adv-x="540" 
d="M497 257l-1 -31q0 -12 -12 -12h-313q-5 0 -5 -5q3 -33 9 -45q24 -72 117 -73q68 0 108 56q4 6 10 6q4 0 7 -3l62 -51q9 -7 3 -16q-26 -35 -65.5 -58.5t-87.5 -30.5q-6 -2 -2 -6q47 -41 47 -89q0 -13 -3 -23q-9 -34 -34.5 -48.5t-58.5 -14.5q-23 0 -53 8q-9 4 -8 15l5 39
q1 13 15 8q11 -3 19 -3q17 0 28 9.5t11 28.5q0 35 -51 74l-6 3q-60 10 -101.5 43t-63.5 86q-23 54 -23 150q0 58 12 94q20 70 75.5 110.5t133.5 40.5q197 0 222 -206q4 -25 4 -56zM209.5 400.5q-24.5 -18.5 -34.5 -51.5q-6 -17 -8 -44q-2 -5 4 -5h203q5 0 5 5q-2 25 -6 38
q-9 36 -35.5 56t-66.5 20q-37 0 -61.5 -18.5z" />
    <glyph glyph-name="uni0237" unicode="&#x237;" horiz-adv-x="252" 
d="M-51 -193v74q0 12 13 11q57 -1 81 20.5t24 70.5l-1 516q0 5 3.5 8.5t8.5 3.5h93q5 0 8.5 -3.5t3.5 -8.5v-515q0 -72 -20.5 -113.5t-68.5 -59.5t-133 -16q-12 0 -12 12z" />
    <glyph glyph-name="uni0259" unicode="&#x259;" horiz-adv-x="540" 
d="M491 253q0 -70 -13 -110q-20 -70 -75.5 -110.5t-133.5 -40.5q-196 0 -222 206q-4 25 -4 57l1 31q0 12 12 12h314q6 0 4 5q-4 32 -9 44q-11 35 -40.5 54t-75.5 19q-69 0 -109 -56q-4 -6 -10 -6q-4 0 -7 3l-62 52q-8 8 -3 16q31 43 83 67t114 24q78 0 132.5 -34.5
t79.5 -97.5q24 -57 24 -135zM331 110.5q25 18.5 35 51.5q5 15 8 44q0 5 -5 5h-203q-5 0 -5 -5q2 -25 6 -38q10 -35 36 -55.5t66 -20.5q37 0 62 18.5z" />
    <glyph glyph-name="uni0292" unicode="&#x292;" horiz-adv-x="511" 
d="M259 267q107 -15 156 -78.5t49 -147.5q0 -76 -37 -130.5t-100 -82.5t-140 -28q-63 0 -131 20q-9 3 -9 14l3 78q0 6 4 9t10 1q63 -18 117 -18q76 0 121.5 35t45.5 102q0 60 -38 103t-106 43q-40 0 -91 -18q-6 -2 -7 -2q-6 0 -10 7l-30 48q-2 6 -2 7q0 5 5 10l193 161
q2 2 1 4t-4 2h-198q-5 0 -8.5 3.5t-3.5 8.5v81q0 5 3.5 8.5t8.5 3.5h348q5 0 8.5 -3.5t3.5 -8.5v-78q0 -9 -7 -15l-158 -133q-4 -4 3 -6z" />
    <glyph glyph-name="uni02BB" unicode="&#x2bb;" horiz-adv-x="181" 
d="M5 692q0 8 10 8h92q11 0 14 -10l56 -195l1 -4q0 -9 -11 -9h-69q-11 0 -14 9l-78 195q-1 2 -1 6z" />
    <glyph glyph-name="uni02BC" unicode="&#x2bc;" horiz-adv-x="181" 
d="M175 696q2 -4 0 -10l-79 -195q-3 -9 -14 -9h-68q-6 0 -8.5 3.5t-1.5 9.5l56 195q3 10 14 10h92q7 0 9 -4z" />
    <glyph glyph-name="circumflex" unicode="&#x2c6;" horiz-adv-x="300" 
d="M30 577.5q-2 4.5 2 10.5l76 105q5 7 14 7h105q9 0 14 -7l76 -105q3 -4 3 -8q0 -7 -10 -7h-70q-9 0 -14 8l-47 67q-2 2 -4 2t-3 -2l-47 -67q-5 -8 -14 -8h-71q-8 0 -10 4.5z" />
    <glyph glyph-name="caron" unicode="&#x2c7;" horiz-adv-x="351" 
d="M29 692q0 8 11 8h71q9 0 14 -8l47 -68q2 -2 4 -2t3 2l47 68q5 8 14 8h70q10 0 10 -7q0 -3 -3 -8l-76 -105q-5 -7 -14 -7h-105q-9 0 -14 7l-76 105q-3 5 -3 7z" />
    <glyph glyph-name="uni02C9" unicode="&#x2c9;" horiz-adv-x="285" 
d="M3.5 622.5q-3.5 3.5 -3.5 8.5v56q0 5 3.5 8.5t8.5 3.5h261q5 0 8.5 -3.5t3.5 -8.5v-56q0 -5 -3.5 -8.5t-8.5 -3.5h-261q-5 0 -8.5 3.5z" />
    <glyph glyph-name="breve" unicode="&#x2d8;" horiz-adv-x="336" 
d="M68 590.5q-41 31.5 -45 80.5v2q0 10 11 10h53q10 0 12 -11q5 -23 24 -37t45 -14q27 0 46 14t24 37q2 11 12 11h52q12 0 12 -11q-5 -49 -45.5 -81t-100.5 -32q-59 0 -100 31.5z" />
    <glyph glyph-name="dotaccent" unicode="&#x2d9;" horiz-adv-x="186" 
d="M43 601q-20 20 -20 51t20 51t51 20t50.5 -20t19.5 -51t-20 -51t-50 -20q-31 0 -51 20z" />
    <glyph glyph-name="ring" unicode="&#x2da;" horiz-adv-x="284" 
d="M56.5 602.5q-34.5 34.5 -34.5 84.5t34.5 84t85.5 34q50 0 84.5 -34t34.5 -84t-34.5 -84.5t-84.5 -34.5q-51 0 -85.5 34.5zM181.5 647q16.5 16 16.5 40t-16.5 40t-39.5 16t-39.5 -16t-16.5 -40q0 -23 16.5 -39.5t39.5 -16.5t39.5 16z" />
    <glyph glyph-name="ogonek" unicode="&#x2db;" horiz-adv-x="159" 
d="M157 -171q0 -7 -8 -11q-24 -8 -53 -8q-33 0 -58.5 14.5t-34.5 47.5q-3 12 -3 24q0 52 57 99q6 5 15 5h49q10 0 10 -6q0 -5 -5 -9q-48 -38 -48 -72q0 -18 11 -27t29 -9q8 0 19 3l5 1q9 0 10 -10l5 -38v-4z" />
    <glyph glyph-name="tilde" unicode="&#x2dc;" horiz-adv-x="372" 
d="M215 588.5q-13 4.5 -33 14.5q-3 2 -14.5 7.5t-19.5 8t-16 2.5q-17 0 -29.5 -5.5t-23.5 -17.5q-5 -5 -10 -5q-4 0 -7 4l-32 34q-8 8 -2 16q16 27 41.5 42t56.5 15q20 0 34 -5.5t37 -17.5q19 -10 29 -14t21 -4q30 0 50 25q5 5 9 5q5 0 8 -4l29 -34q6 -7 3 -15
q-13 -26 -39.5 -41t-59.5 -15q-19 0 -32 4.5z" />
    <glyph glyph-name="hungarumlaut" unicode="&#x2dd;" horiz-adv-x="401" 
d="M29 587q-2 4 1 10l54 102q5 9 15 9h78q7 0 9.5 -4.5t-1.5 -10.5l-69 -102q-5 -8 -14 -8h-64q-7 0 -9 4zM213 587q-2 4 1 10l54 102q5 9 15 9h79q7 0 9 -4.5t-2 -10.5l-68 -102q-5 -8 -14 -8h-65q-7 0 -9 4z" />
    <glyph glyph-name="gravecomb" unicode="&#x300;" horiz-adv-x="0" 
d="M-8 583q0 -8 -10 -8h-66q-9 0 -14 8l-69 102q-2 4 -2 7q0 8 10 8h79q11 0 15 -8l55 -103q2 -4 2 -6z" />
    <glyph glyph-name="acutecomb" unicode="&#x301;" horiz-adv-x="0" 
d="M-214 579q-2 4 1 10l55 103q4 8 15 8h79q7 0 9.5 -4.5t-1.5 -10.5l-69 -102q-5 -8 -14 -8h-66q-7 0 -9 4z" />
    <glyph glyph-name="uni0302" unicode="&#x302;" horiz-adv-x="0" 
d="M-321 577.5q-2 4.5 2 10.5l76 105q5 7 14 7h105q9 0 14 -7l76 -105q3 -4 3 -8q0 -7 -10 -7h-70q-9 0 -14 8l-47 67q-2 2 -4 2t-3 -2l-47 -67q-5 -8 -14 -8h-71q-8 0 -10 4.5z" />
    <glyph glyph-name="tildecomb" unicode="&#x303;" horiz-adv-x="0" 
d="M-137 588.5q-13 4.5 -33 14.5q-3 2 -14.5 7.5t-19.5 8t-16 2.5q-17 0 -29.5 -5.5t-23.5 -17.5q-5 -5 -10 -5q-4 0 -7 4l-32 34q-8 8 -2 16q16 27 41.5 42t56.5 15q20 0 34 -5.5t37 -17.5q19 -10 29 -14t21 -4q30 0 50 25q5 5 9 5q5 0 8 -4l29 -34q6 -7 3 -15
q-13 -26 -39.5 -41t-59.5 -15q-19 0 -32 4.5z" />
    <glyph glyph-name="uni0304" unicode="&#x304;" horiz-adv-x="0" 
d="M-281.5 606.5q-3.5 3.5 -3.5 8.5v56q0 5 3.5 8.5t8.5 3.5h261q5 0 8.5 -3.5t3.5 -8.5v-56q0 -5 -3.5 -8.5t-8.5 -3.5h-261q-5 0 -8.5 3.5z" />
    <glyph glyph-name="uni0306" unicode="&#x306;" horiz-adv-x="0" 
d="M-267 599q-41 30 -46 77v2q0 10 11 10h48q10 0 12 -11q5 -23 25.5 -37t48.5 -14q29 0 50 14t26 37q2 11 12 11h46q13 0 11 -10q-5 -48 -45 -78.5t-100 -30.5q-58 0 -99 30z" />
    <glyph glyph-name="uni0307" unicode="&#x307;" horiz-adv-x="0" 
d="M-128 601q-20 20 -20 51t20 51t51 20t50.5 -20t19.5 -51t-20 -51t-50 -20q-31 0 -51 20z" />
    <glyph glyph-name="uni0308" unicode="&#x308;" horiz-adv-x="0" 
d="M-121 606q-20 20 -20 51t20 51t51 20t50.5 -20t19.5 -51t-20 -51t-50 -20q-31 0 -51 20zM-311 606q-20 20 -20 51t20 51t51 20t50.5 -20t19.5 -51t-20 -51t-50 -20q-31 0 -51 20z" />
    <glyph glyph-name="hookabovecomb" unicode="&#x309;" horiz-adv-x="0" 
d="M-342.5 563q-2.5 4 -0.5 10q11 27 33 49q11 11 16 19.5t5 22.5q0 11 -10 20t-23 9q-14 0 -24 -7t-24 -25q-4 -6 -10 -6q-5 0 -8 3l-26 19q-5 3 -5 9q0 5 2 8q21 30 42.5 43t55.5 13q42 0 67.5 -23t25.5 -63q0 -23 -9.5 -38t-28.5 -34q-18 -18 -26 -32q-6 -11 -15 -8
l-29 6q-6 1 -8.5 5z" />
    <glyph glyph-name="uni030A" unicode="&#x30a;" horiz-adv-x="0" 
d="M-191.5 602.5q-34.5 34.5 -34.5 84.5t34.5 84t85.5 34q50 0 84.5 -34t34.5 -84t-34.5 -84.5t-84.5 -34.5q-51 0 -85.5 34.5zM-66.5 647q16.5 16 16.5 40t-16.5 40t-39.5 16t-39.5 -16t-16.5 -40q0 -23 16.5 -39.5t39.5 -16.5t39.5 16z" />
    <glyph glyph-name="uni030B" unicode="&#x30b;" horiz-adv-x="0" 
d="M-357.5 578.5q-2.5 3.5 0.5 10.5l50 102q4 9 14 9h81q7 0 9 -4t-1 -10l-54 -102q-5 -9 -15 -9h-75q-7 0 -9.5 3.5zM-184 579q-2 4 1 10l54 102q4 9 15 9h75q7 0 9 -4t-1 -10l-55 -103q-4 -8 -15 -8h-74q-7 0 -9 4z" />
    <glyph glyph-name="uni030C" unicode="&#x30c;" horiz-adv-x="0" 
d="M-322 692q0 8 11 8h71q9 0 14 -8l47 -68q2 -2 4 -2t3 2l47 68q5 8 14 8h70q10 0 10 -7q0 -3 -3 -8l-76 -105q-5 -7 -14 -7h-105q-9 0 -14 7l-76 105q-3 5 -3 7z" />
    <glyph glyph-name="uni0312" unicode="&#x312;" horiz-adv-x="0" 
d="M-29 696q2 -4 -1 -10l-55 -103q-4 -8 -15 -8h-79q-7 0 -9.5 4.5t1.5 10.5l69 102q5 8 14 8h66q7 0 9 -4z" />
    <glyph glyph-name="uni0313" unicode="&#x313;" horiz-adv-x="0" 
d="M-171 579q-2 4 1 10l55 103q4 8 15 8h79q7 0 9.5 -4.5t-1.5 -10.5l-69 -102q-5 -8 -14 -8h-66q-7 0 -9 4z" />
    <glyph glyph-name="uni031B" unicode="&#x31b;" horiz-adv-x="0" 
d="M-153 463v36q0 11 11 13q26 3 46 20t23 52q1 12 13 12h49q5 0 8.5 -4.5t2.5 -11.5q-6 -60 -46 -92.5t-95 -36.5q-12 0 -12 12z" />
    <glyph glyph-name="dotbelowcomb" unicode="&#x323;" horiz-adv-x="0" 
d="M-130 -185.5q-19 19.5 -19 48.5t19 48t49 19q29 0 48 -19t19 -48t-19 -48.5t-48 -19.5q-30 0 -49 19.5z" />
    <glyph glyph-name="uni0326" unicode="&#x326;" horiz-adv-x="0" 
d="M-199 -176q-2 4 1 10l55 103q4 8 15 8h79q7 0 9.5 -4.5t-1.5 -10.5l-69 -102q-5 -8 -14 -8h-66q-7 0 -9 4z" />
    <glyph glyph-name="uni0327" unicode="&#x327;" horiz-adv-x="0" 
d="M-157 -167l5 38q1 12 15 9q11 -3 20 -3q17 0 28 9t11 27q0 34 -48 72q-5 4 -5 9q0 6 10 6h49q9 0 15 -5q57 -47 57 -100q0 -11 -3 -23q-9 -33 -34.5 -47.5t-58.5 -14.5q-29 0 -53 8q-9 4 -8 15z" />
    <glyph glyph-name="uni0328" unicode="&#x328;" horiz-adv-x="0" 
d="M-2 -171q0 -7 -8 -11q-24 -8 -53 -8q-33 0 -58.5 14.5t-34.5 47.5q-3 12 -3 24q0 52 57 99q6 5 15 5h49q10 0 10 -6q0 -5 -5 -9q-48 -38 -48 -72q0 -18 11 -27t28 -9q9 0 20 3l5 1q9 0 10 -10l5 -38v-4z" />
    <glyph glyph-name="uni0335" unicode="&#x335;" horiz-adv-x="0" 
d="M-337.5 631.5q3.5 3.5 8.5 3.5h317q5 0 8.5 -3.5t3.5 -8.5v-48q0 -5 -3.5 -8.5t-8.5 -3.5h-317q-5 0 -8.5 3.5t-3.5 8.5v48q0 5 3.5 8.5z" />
    <glyph glyph-name="uni0336" unicode="&#x336;" horiz-adv-x="0" 
d="M-611.5 515.5q-3.5 3.5 -3.5 8.5v55q0 5 3.5 8.5t8.5 3.5h591q5 0 8.5 -3.5t3.5 -8.5v-55q0 -5 -3.5 -8.5t-8.5 -3.5h-591q-5 0 -8.5 3.5z" />
    <glyph glyph-name="uni0337" unicode="&#x337;" horiz-adv-x="0" 
d="M-415 -10q-4 0 -9 5l-41 49q-4 6 -4 8q0 4 5 9l466 376q4 3 8 3t9 -5l41 -50q4 -6 4 -8q0 -4 -5 -9l-466 -375q-5 -3 -8 -3z" />
    <glyph glyph-name="uni0338" unicode="&#x338;" horiz-adv-x="0" 
d="M-467.5 -37.5q-2.5 3.5 0.5 10.5l383 764q4 9 14 9h54q7 0 9.5 -3.5t-0.5 -10.5l-384 -764q-5 -9 -14 -9h-53q-7 0 -9.5 3.5z" />
    <glyph glyph-name="uni0394" unicode="&#x394;" horiz-adv-x="653" 
d="M30.5 3.5q-3.5 3.5 -3.5 8.5v80q0 6 3 15l249 584q4 9 14 9h66q10 0 14 -9l250 -585q3 -9 3 -15v-79q0 -5 -3.5 -8.5t-8.5 -3.5h-575q-5 0 -8.5 3.5zM142.5 102q1.5 -2 3.5 -2h361q2 0 3.5 2t0.5 4l-182 438q-3 8 -6 0l-181 -438q-1 -2 0.5 -4z" />
    <glyph glyph-name="uni03A9" unicode="&#x3a9;" horiz-adv-x="637" 
d="M59.5 3.5q-3.5 3.5 -3.5 8.5v76q0 5 3.5 8.5t8.5 3.5h56q3 0 3.5 2t-1.5 4q-30 27 -46 67t-16 89v202q0 72 32 127.5t89.5 86t132.5 30.5q76 0 133.5 -30.5t89.5 -86t32 -127.5v-202q0 -49 -16 -89t-46 -67q-2 -2 -1.5 -4t3.5 -2h56q5 0 8.5 -3.5t3.5 -8.5v-76
q0 -5 -3.5 -8.5t-8.5 -3.5h-206q-5 0 -8.5 3.5t-3.5 8.5v79q0 10 11 13q40 10 67.5 48t27.5 91v223q0 65 -38 104t-101 39q-62 0 -100 -39t-38 -104v-223q0 -53 27.5 -91t67.5 -49q10 -3 10 -13v-78q0 -5 -3.5 -8.5t-8.5 -3.5h-205q-5 0 -8.5 3.5z" />
    <glyph glyph-name="uni03BC" unicode="&#x3bc;" horiz-adv-x="549" 
d="M372.5 507.5q3.5 3.5 8.5 3.5h92q5 0 8.5 -3.5t3.5 -8.5v-487q0 -5 -3.5 -8.5t-8.5 -3.5h-92q-5 0 -8.5 3.5t-3.5 8.5v32q0 3 -2 4t-4 -2q-41 -53 -122 -53q-32 0 -57 7q-6 2 -6 -4v-184q0 -5 -3.5 -8.5t-8.5 -3.5h-92q-5 0 -8.5 3.5t-3.5 8.5v687q0 5 3.5 8.5t8.5 3.5
h92q5 0 8.5 -3.5t3.5 -8.5v-322q5 -40 29 -62.5t64 -22.5t66.5 23.5t31.5 62.5v321q0 5 3.5 8.5z" />
    <glyph glyph-name="pi" unicode="&#x3c0;" horiz-adv-x="656" 
d="M620.5 415.5q-3.5 -3.5 -8.5 -3.5h-63q-5 0 -5 -5v-227q0 -35 6.5 -52.5t18.5 -23t32 -4.5q12 0 12 -12v-76q0 -12 -12 -12q-53 -1 -88 4.5t-60.5 32t-24.5 83.5v287q0 5 -5 5h-185q-5 0 -5 -5v-395q0 -5 -3.5 -8.5t-8.5 -3.5h-92q-5 0 -8.5 3.5t-3.5 8.5v395q0 5 -5 5
h-68q-5 0 -8.5 3.5t-3.5 8.5v75q0 5 3.5 8.5t8.5 3.5h568q5 0 8.5 -3.5t3.5 -8.5v-75q0 -5 -3.5 -8.5z" />
    <glyph glyph-name="Wgrave" unicode="&#x1e80;" horiz-adv-x="912" 
d="M208 10l-182 677l-1 4q0 9 11 9h98q11 0 14 -10l114 -456q1 -3 3 -3t3 3l109 456q3 10 13 10h96q11 0 14 -10l116 -457q1 -3 3 -3t3 3l112 457q3 10 14 10h93q14 0 11 -13l-173 -677q-3 -10 -14 -10h-93q-11 0 -14 10l-117 477q-1 3 -3 3.5t-3 -3.5l-112 -477
q-3 -10 -13 -10h-88q-11 0 -14 10zM499 772q0 -8 -10 -8h-66q-9 0 -14 8l-69 102q-2 4 -2 7q0 8 10 8h79q11 0 15 -8l55 -103q2 -4 2 -6z" />
    <glyph glyph-name="wgrave" unicode="&#x1e81;" horiz-adv-x="761" 
d="M169 10l-143 488l-1 4q0 10 11 10h95q11 0 14 -10l83 -334q1 -3 3 -3t3 3l87 334q3 10 14 10h83q11 0 14 -10l89 -334q1 -3 3 -3t3 3l89 334q3 10 14 10l94 -2q6 0 8.5 -3.5t1.5 -9.5l-144 -487q-3 -10 -13 -10h-96q-11 0 -14 10l-88 305q-1 3 -3 3t-3 -3l-81 -305
q-3 -10 -14 -10h-95q-11 0 -14 10zM420 583q0 -8 -10 -8h-66q-9 0 -14 8l-69 102q-2 4 -2 7q0 8 10 8h79q11 0 15 -8l55 -103q2 -4 2 -6z" />
    <glyph glyph-name="Wacute" unicode="&#x1e82;" horiz-adv-x="912" 
d="M208 10l-182 677l-1 4q0 9 11 9h98q11 0 14 -10l114 -456q1 -3 3 -3t3 3l109 456q3 10 13 10h96q11 0 14 -10l116 -457q1 -3 3 -3t3 3l112 457q3 10 14 10h93q14 0 11 -13l-173 -677q-3 -10 -14 -10h-93q-11 0 -14 10l-117 477q-1 3 -3 3.5t-3 -3.5l-112 -477
q-3 -10 -13 -10h-88q-11 0 -14 10zM400 768q-2 4 1 10l55 103q4 8 15 8h79q7 0 9.5 -4.5t-1.5 -10.5l-69 -102q-5 -8 -14 -8h-66q-7 0 -9 4z" />
    <glyph glyph-name="wacute" unicode="&#x1e83;" horiz-adv-x="761" 
d="M169 10l-143 488l-1 4q0 10 11 10h95q11 0 14 -10l83 -334q1 -3 3 -3t3 3l87 334q3 10 14 10h83q11 0 14 -10l89 -334q1 -3 3 -3t3 3l89 334q3 10 14 10l94 -2q6 0 8.5 -3.5t1.5 -9.5l-144 -487q-3 -10 -13 -10h-96q-11 0 -14 10l-88 305q-1 3 -3 3t-3 -3l-81 -305
q-3 -10 -14 -10h-95q-11 0 -14 10zM320 579q-2 4 1 10l55 103q4 8 15 8h79q7 0 9.5 -4.5t-1.5 -10.5l-69 -102q-5 -8 -14 -8h-66q-7 0 -9 4z" />
    <glyph glyph-name="Wdieresis" unicode="&#x1e84;" horiz-adv-x="912" 
d="M208 10l-182 677l-1 4q0 9 11 9h98q11 0 14 -10l114 -456q1 -3 3 -3t3 3l109 456q3 10 13 10h96q11 0 14 -10l116 -457q1 -3 3 -3t3 3l112 457q3 10 14 10h93q14 0 11 -13l-173 -677q-3 -10 -14 -10h-93q-11 0 -14 10l-117 477q-1 3 -3 3.5t-3 -3.5l-112 -477
q-3 -10 -13 -10h-88q-11 0 -14 10zM500 795q-20 20 -20 51t20 51t51 20t50.5 -20t19.5 -51t-20 -51t-50 -20q-31 0 -51 20zM310 795q-20 20 -20 51t20 51t51 20t50.5 -20t19.5 -51t-20 -51t-50 -20q-31 0 -51 20z" />
    <glyph glyph-name="wdieresis" unicode="&#x1e85;" horiz-adv-x="761" 
d="M169 10l-143 488l-1 4q0 10 11 10h95q11 0 14 -10l83 -334q1 -3 3 -3t3 3l87 334q3 10 14 10h83q11 0 14 -10l89 -334q1 -3 3 -3t3 3l89 334q3 10 14 10l94 -2q6 0 8.5 -3.5t1.5 -9.5l-144 -487q-3 -10 -13 -10h-96q-11 0 -14 10l-88 305q-1 3 -3 3t-3 -3l-81 -305
q-3 -10 -14 -10h-95q-11 0 -14 10zM420 606q-20 20 -20 51t20 51t51 20t50.5 -20t19.5 -51t-20 -51t-50 -20q-31 0 -51 20zM230 606q-20 20 -20 51t20 51t51 20t50.5 -20t19.5 -51t-20 -51t-50 -20q-31 0 -51 20z" />
    <glyph glyph-name="uni1EA0" unicode="&#x1ea0;" horiz-adv-x="648" 
d="M494 10l-33 107q-2 4 -5 4h-264q-3 0 -5 -4l-33 -107q-3 -10 -13 -10h-100q-6 0 -9 3.5t-1 10.5l217 676q3 10 13 10h125q10 0 13 -10l218 -676q1 -2 1 -5q0 -9 -11 -9h-100q-10 0 -13 10zM222 212h203q6 0 4 6l-103 335q-1 4 -3 4t-3 -4l-102 -335q-1 -6 4 -6z
M276 -185.5q-19 19.5 -19 48.5t19 48t49 19q29 0 48 -19t19 -48t-19 -48.5t-48 -19.5q-30 0 -49 19.5z" />
    <glyph glyph-name="uni1EA1" unicode="&#x1ea1;" horiz-adv-x="522" 
d="M368 497q48 -22 74 -60.5t26 -87.5v-337q0 -5 -3.5 -8.5t-8.5 -3.5h-92q-5 0 -8.5 3.5t-3.5 8.5v32q0 3 -2 3.5t-4 -1.5q-49 -54 -142 -54q-75 0 -123.5 38t-48.5 113q0 78 54.5 121.5t153.5 43.5h107q5 0 5 5v24q0 39 -23 60.5t-69 21.5q-38 0 -61.5 -13.5t-29.5 -37.5
q-3 -12 -14 -10l-97 12q-5 1 -8.5 3.5t-2.5 6.5q8 61 65.5 100t144.5 39q63 0 111 -22zM317 110q35 26 35 66v47q0 5 -5 5h-84q-53 0 -83.5 -20t-30.5 -57q0 -32 23.5 -49.5t60.5 -17.5q49 0 84 26zM213 -185.5q-19 19.5 -19 48.5t19 48t49 19q29 0 48 -19t19 -48t-19 -48.5
t-48 -19.5q-30 0 -49 19.5z" />
    <glyph glyph-name="uni1EA2" unicode="&#x1ea2;" horiz-adv-x="648" 
d="M494 10l-33 107q-2 4 -5 4h-264q-3 0 -5 -4l-33 -107q-3 -10 -13 -10h-100q-6 0 -9 3.5t-1 10.5l217 676q3 10 13 10h125q10 0 13 -10l218 -676q1 -2 1 -5q0 -9 -11 -9h-100q-10 0 -13 10zM222 212h203q6 0 4 6l-103 335q-1 4 -3 4t-3 -4l-102 -335q-1 -6 4 -6z
M304.5 752q-2.5 4 -0.5 10q11 27 33 49q11 11 16 19.5t5 22.5q0 11 -10 20t-23 9q-14 0 -24 -7t-24 -25q-4 -6 -10 -6q-5 0 -8 3l-26 19q-5 3 -5 9q0 5 2 8q21 30 42.5 43t55.5 13q42 0 67.5 -23t25.5 -63q0 -23 -9.5 -38t-28.5 -34q-18 -18 -26 -32q-6 -11 -15 -8l-29 6
q-6 1 -8.5 5z" />
    <glyph glyph-name="uni1EA3" unicode="&#x1ea3;" horiz-adv-x="522" 
d="M368 497q48 -22 74 -60.5t26 -87.5v-337q0 -5 -3.5 -8.5t-8.5 -3.5h-92q-5 0 -8.5 3.5t-3.5 8.5v32q0 3 -2 3.5t-4 -1.5q-49 -54 -142 -54q-75 0 -123.5 38t-48.5 113q0 78 54.5 121.5t153.5 43.5h107q5 0 5 5v24q0 39 -23 60.5t-69 21.5q-38 0 -61.5 -13.5t-29.5 -37.5
q-3 -12 -14 -10l-97 12q-5 1 -8.5 3.5t-2.5 6.5q8 61 65.5 100t144.5 39q63 0 111 -22zM317 110q35 26 35 66v47q0 5 -5 5h-84q-53 0 -83.5 -20t-30.5 -57q0 -32 23.5 -49.5t60.5 -17.5q49 0 84 26zM242.5 563q-2.5 4 -0.5 10q11 27 33 49q11 11 16 19.5t5 22.5q0 11 -10 20
t-23 9q-14 0 -24 -7t-24 -25q-4 -6 -10 -6q-5 0 -8 3l-26 19q-5 3 -5 9q0 5 2 8q21 30 42.5 43t55.5 13q42 0 67.5 -23t25.5 -63q0 -23 -9.5 -38t-28.5 -34q-18 -18 -26 -32q-6 -11 -15 -8l-29 6q-6 1 -8.5 5z" />
    <glyph glyph-name="uni1EA4" unicode="&#x1ea4;" horiz-adv-x="648" 
d="M494 10l-33 107q-2 4 -5 4h-264q-3 0 -5 -4l-33 -107q-3 -10 -13 -10h-100q-6 0 -9 3.5t-1 10.5l217 676q3 10 13 10h125q10 0 13 -10l218 -676q1 -2 1 -5q0 -9 -11 -9h-100q-10 0 -13 10zM222 212h203q6 0 4 6l-103 335q-1 4 -3 4t-3 -4l-102 -335q-1 -6 4 -6z
M176 766.5q-2 4.5 2 10.5l76 105q5 7 14 7h105q9 0 14 -7l76 -105q3 -4 3 -8q0 -7 -10 -7h-70q-9 0 -14 8l-47 67q-2 2 -4 2t-3 -2l-47 -67q-5 -8 -14 -8h-71q-8 0 -10 4.5zM464 843q-2 4 1 10l55 103q4 8 15 8h79q7 0 9.5 -4.5t-1.5 -10.5l-69 -102q-5 -8 -14 -8h-66
q-7 0 -9 4z" />
    <glyph glyph-name="uni1EA5" unicode="&#x1ea5;" horiz-adv-x="522" 
d="M368 497q48 -22 74 -60.5t26 -87.5v-337q0 -5 -3.5 -8.5t-8.5 -3.5h-92q-5 0 -8.5 3.5t-3.5 8.5v32q0 3 -2 3.5t-4 -1.5q-49 -54 -142 -54q-75 0 -123.5 38t-48.5 113q0 78 54.5 121.5t153.5 43.5h107q5 0 5 5v24q0 39 -23 60.5t-69 21.5q-38 0 -61.5 -13.5t-29.5 -37.5
q-3 -12 -14 -10l-97 12q-5 1 -8.5 3.5t-2.5 6.5q8 61 65.5 100t144.5 39q63 0 111 -22zM317 110q35 26 35 66v47q0 5 -5 5h-84q-53 0 -83.5 -20t-30.5 -57q0 -32 23.5 -49.5t60.5 -17.5q49 0 84 26zM115 577.5q-2 4.5 2 10.5l76 105q5 7 14 7h105q9 0 14 -7l76 -105
q3 -4 3 -8q0 -7 -10 -7h-70q-9 0 -14 8l-47 67q-2 2 -4 2t-3 -2l-47 -67q-5 -8 -14 -8h-71q-8 0 -10 4.5zM403 654q-2 4 1 10l55 103q4 8 15 8h79q7 0 9.5 -4.5t-1.5 -10.5l-69 -102q-5 -8 -14 -8h-66q-7 0 -9 4z" />
    <glyph glyph-name="uni1EA6" unicode="&#x1ea6;" horiz-adv-x="648" 
d="M494 10l-33 107q-2 4 -5 4h-264q-3 0 -5 -4l-33 -107q-3 -10 -13 -10h-100q-6 0 -9 3.5t-1 10.5l217 676q3 10 13 10h125q10 0 13 -10l218 -676q1 -2 1 -5q0 -9 -11 -9h-100q-10 0 -13 10zM222 212h203q6 0 4 6l-103 335q-1 4 -3 4t-3 -4l-102 -335q-1 -6 4 -6z
M177 766.5q-2 4.5 2 10.5l76 105q5 7 14 7h105q9 0 14 -7l76 -105q3 -4 3 -8q0 -7 -10 -7h-70q-9 0 -14 8l-47 67q-2 2 -4 2t-3 -2l-47 -67q-5 -8 -14 -8h-71q-8 0 -10 4.5zM535 889q0 -8 -10 -8h-66q-9 0 -14 8l-69 102q-2 4 -2 7q0 8 10 8h79q11 0 15 -8l55 -103
q2 -4 2 -6z" />
    <glyph glyph-name="uni1EA7" unicode="&#x1ea7;" horiz-adv-x="522" 
d="M368 497q48 -22 74 -60.5t26 -87.5v-337q0 -5 -3.5 -8.5t-8.5 -3.5h-92q-5 0 -8.5 3.5t-3.5 8.5v32q0 3 -2 3.5t-4 -1.5q-49 -54 -142 -54q-75 0 -123.5 38t-48.5 113q0 78 54.5 121.5t153.5 43.5h107q5 0 5 5v24q0 39 -23 60.5t-69 21.5q-38 0 -61.5 -13.5t-29.5 -37.5
q-3 -12 -14 -10l-97 12q-5 1 -8.5 3.5t-2.5 6.5q8 61 65.5 100t144.5 39q63 0 111 -22zM317 110q35 26 35 66v47q0 5 -5 5h-84q-53 0 -83.5 -20t-30.5 -57q0 -32 23.5 -49.5t60.5 -17.5q49 0 84 26zM115 577.5q-2 4.5 2 10.5l76 105q5 7 14 7h105q9 0 14 -7l76 -105
q3 -4 3 -8q0 -7 -10 -7h-70q-9 0 -14 8l-47 67q-2 2 -4 2t-3 -2l-47 -67q-5 -8 -14 -8h-71q-8 0 -10 4.5zM473 700q0 -8 -10 -8h-66q-9 0 -14 8l-69 102q-2 4 -2 7q0 8 10 8h79q11 0 15 -8l55 -103q2 -4 2 -6z" />
    <glyph glyph-name="uni1EA8" unicode="&#x1ea8;" horiz-adv-x="648" 
d="M494 10l-33 107q-2 4 -5 4h-264q-3 0 -5 -4l-33 -107q-3 -10 -13 -10h-100q-6 0 -9 3.5t-1 10.5l217 676q3 10 13 10h125q10 0 13 -10l218 -676q1 -2 1 -5q0 -9 -11 -9h-100q-10 0 -13 10zM222 212h203q6 0 4 6l-103 335q-1 4 -3 4t-3 -4l-102 -335q-1 -6 4 -6z
M177 766.5q-2 4.5 2 10.5l76 105q5 7 14 7h105q9 0 14 -7l76 -105q3 -4 3 -8q0 -7 -10 -7h-70q-9 0 -14 8l-47 67q-2 2 -4 2t-3 -2l-47 -67q-5 -8 -14 -8h-71q-8 0 -10 4.5zM444.5 873q-2.5 4 -0.5 10q11 27 33 49q11 11 16 19.5t5 22.5q0 11 -10 20t-23 9q-14 0 -24 -7
t-24 -25q-4 -6 -10 -6q-5 0 -8 3l-26 19q-5 3 -5 9q0 5 2 8q21 30 42.5 43t55.5 13q42 0 67.5 -23t25.5 -63q0 -23 -9.5 -38t-28.5 -34q-18 -18 -26 -32q-6 -11 -15 -8l-29 6q-6 1 -8.5 5z" />
    <glyph glyph-name="uni1EA9" unicode="&#x1ea9;" horiz-adv-x="522" 
d="M368 497q48 -22 74 -60.5t26 -87.5v-337q0 -5 -3.5 -8.5t-8.5 -3.5h-92q-5 0 -8.5 3.5t-3.5 8.5v32q0 3 -2 3.5t-4 -1.5q-49 -54 -142 -54q-75 0 -123.5 38t-48.5 113q0 78 54.5 121.5t153.5 43.5h107q5 0 5 5v24q0 39 -23 60.5t-69 21.5q-38 0 -61.5 -13.5t-29.5 -37.5
q-3 -12 -14 -10l-97 12q-5 1 -8.5 3.5t-2.5 6.5q8 61 65.5 100t144.5 39q63 0 111 -22zM317 110q35 26 35 66v47q0 5 -5 5h-84q-53 0 -83.5 -20t-30.5 -57q0 -32 23.5 -49.5t60.5 -17.5q49 0 84 26zM115 577.5q-2 4.5 2 10.5l76 105q5 7 14 7h105q9 0 14 -7l76 -105
q3 -4 3 -8q0 -7 -10 -7h-70q-9 0 -14 8l-47 67q-2 2 -4 2t-3 -2l-47 -67q-5 -8 -14 -8h-71q-8 0 -10 4.5zM382.5 684q-2.5 4 -0.5 10q11 27 33 49q11 11 16 19.5t5 22.5q0 11 -10 20t-23 9q-14 0 -24 -7t-24 -25q-4 -6 -10 -6q-5 0 -8 3l-26 19q-5 3 -5 9q0 5 2 8
q21 30 42.5 43t55.5 13q42 0 67.5 -23t25.5 -63q0 -23 -9.5 -38t-28.5 -34q-18 -18 -26 -32q-6 -11 -15 -8l-29 6q-6 1 -8.5 5z" />
    <glyph glyph-name="uni1EAA" unicode="&#x1eaa;" horiz-adv-x="648" 
d="M494 10l-33 107q-2 4 -5 4h-264q-3 0 -5 -4l-33 -107q-3 -10 -13 -10h-100q-6 0 -9 3.5t-1 10.5l217 676q3 10 13 10h125q10 0 13 -10l218 -676q1 -2 1 -5q0 -9 -11 -9h-100q-10 0 -13 10zM222 212h203q6 0 4 6l-103 335q-1 4 -3 4t-3 -4l-102 -335q-1 -6 4 -6z
M177 766.5q-2 4.5 2 10.5l76 105q5 7 14 7h105q9 0 14 -7l76 -105q3 -4 3 -8q0 -7 -10 -7h-70q-9 0 -14 8l-47 67q-2 2 -4 2t-3 -2l-47 -67q-5 -8 -14 -8h-71q-8 0 -10 4.5zM354 925.5q-13 4.5 -33 14.5q-3 2 -14.5 7.5t-19.5 8t-16 2.5q-17 0 -29.5 -5.5t-23.5 -17.5
q-5 -5 -10 -5q-4 0 -7 4l-32 34q-8 8 -2 16q16 27 41.5 42t56.5 15q20 0 34 -5.5t37 -17.5q19 -10 29 -14t21 -4q30 0 50 25q5 5 9 5q5 0 8 -4l29 -34q6 -7 3 -15q-13 -26 -39.5 -41t-59.5 -15q-19 0 -32 4.5z" />
    <glyph glyph-name="uni1EAB" unicode="&#x1eab;" horiz-adv-x="522" 
d="M368 497q48 -22 74 -60.5t26 -87.5v-337q0 -5 -3.5 -8.5t-8.5 -3.5h-92q-5 0 -8.5 3.5t-3.5 8.5v32q0 3 -2 3.5t-4 -1.5q-49 -54 -142 -54q-75 0 -123.5 38t-48.5 113q0 78 54.5 121.5t153.5 43.5h107q5 0 5 5v24q0 39 -23 60.5t-69 21.5q-38 0 -61.5 -13.5t-29.5 -37.5
q-3 -12 -14 -10l-97 12q-5 1 -8.5 3.5t-2.5 6.5q8 61 65.5 100t144.5 39q63 0 111 -22zM317 110q35 26 35 66v47q0 5 -5 5h-84q-53 0 -83.5 -20t-30.5 -57q0 -32 23.5 -49.5t60.5 -17.5q49 0 84 26zM115 577.5q-2 4.5 2 10.5l76 105q5 7 14 7h105q9 0 14 -7l76 -105
q3 -4 3 -8q0 -7 -10 -7h-70q-9 0 -14 8l-47 67q-2 2 -4 2t-3 -2l-47 -67q-5 -8 -14 -8h-71q-8 0 -10 4.5zM292 736.5q-13 4.5 -33 14.5q-3 2 -14.5 7.5t-19.5 8t-16 2.5q-17 0 -29.5 -5.5t-23.5 -17.5q-5 -5 -10 -5q-4 0 -7 4l-32 34q-8 8 -2 16q16 27 41.5 42t56.5 15
q20 0 34 -5.5t37 -17.5q19 -10 29 -14t21 -4q30 0 50 25q5 5 9 5q5 0 8 -4l29 -34q6 -7 3 -15q-13 -26 -39.5 -41t-59.5 -15q-19 0 -32 4.5z" />
    <glyph glyph-name="uni1EAC" unicode="&#x1eac;" horiz-adv-x="648" 
d="M494 10l-33 107q-2 4 -5 4h-264q-3 0 -5 -4l-33 -107q-3 -10 -13 -10h-100q-6 0 -9 3.5t-1 10.5l217 676q3 10 13 10h125q10 0 13 -10l218 -676q1 -2 1 -5q0 -9 -11 -9h-100q-10 0 -13 10zM222 212h203q6 0 4 6l-103 335q-1 4 -3 4t-3 -4l-102 -335q-1 -6 4 -6z
M276 -185.5q-19 19.5 -19 48.5t19 48t49 19q29 0 48 -19t19 -48t-19 -48.5t-48 -19.5q-30 0 -49 19.5zM177 766.5q-2 4.5 2 10.5l76 105q5 7 14 7h105q9 0 14 -7l76 -105q3 -4 3 -8q0 -7 -10 -7h-70q-9 0 -14 8l-47 67q-2 2 -4 2t-3 -2l-47 -67q-5 -8 -14 -8h-71
q-8 0 -10 4.5z" />
    <glyph glyph-name="uni1EAD" unicode="&#x1ead;" horiz-adv-x="522" 
d="M368 497q48 -22 74 -60.5t26 -87.5v-337q0 -5 -3.5 -8.5t-8.5 -3.5h-92q-5 0 -8.5 3.5t-3.5 8.5v32q0 3 -2 3.5t-4 -1.5q-49 -54 -142 -54q-75 0 -123.5 38t-48.5 113q0 78 54.5 121.5t153.5 43.5h107q5 0 5 5v24q0 39 -23 60.5t-69 21.5q-38 0 -61.5 -13.5t-29.5 -37.5
q-3 -12 -14 -10l-97 12q-5 1 -8.5 3.5t-2.5 6.5q8 61 65.5 100t144.5 39q63 0 111 -22zM317 110q35 26 35 66v47q0 5 -5 5h-84q-53 0 -83.5 -20t-30.5 -57q0 -32 23.5 -49.5t60.5 -17.5q49 0 84 26zM213 -185.5q-19 19.5 -19 48.5t19 48t49 19q29 0 48 -19t19 -48t-19 -48.5
t-48 -19.5q-30 0 -49 19.5zM115 577.5q-2 4.5 2 10.5l76 105q5 7 14 7h105q9 0 14 -7l76 -105q3 -4 3 -8q0 -7 -10 -7h-70q-9 0 -14 8l-47 67q-2 2 -4 2t-3 -2l-47 -67q-5 -8 -14 -8h-71q-8 0 -10 4.5z" />
    <glyph glyph-name="uni1EAE" unicode="&#x1eae;" horiz-adv-x="648" 
d="M494 10l-33 107q-2 4 -5 4h-264q-3 0 -5 -4l-33 -107q-3 -10 -13 -10h-100q-6 0 -9 3.5t-1 10.5l217 676q3 10 13 10h125q10 0 13 -10l218 -676q1 -2 1 -5q0 -9 -11 -9h-100q-10 0 -13 10zM222 212h203q6 0 4 6l-103 335q-1 4 -3 4t-3 -4l-102 -335q-1 -6 4 -6zM223 791
q-41 30 -46 77v2q0 10 11 10h48q10 0 12 -11q5 -23 25.5 -37t48.5 -14q29 0 50 14t26 37q2 11 12 11h46q13 0 11 -10q-5 -48 -45 -78.5t-100 -30.5q-58 0 -99 30zM274 920q-2 4 1 10l55 103q4 8 15 8h79q7 0 9.5 -4.5t-1.5 -10.5l-69 -102q-5 -8 -14 -8h-66q-7 0 -9 4z" />
    <glyph glyph-name="uni1EAF" unicode="&#x1eaf;" horiz-adv-x="522" 
d="M368 497q48 -22 74 -60.5t26 -87.5v-337q0 -5 -3.5 -8.5t-8.5 -3.5h-92q-5 0 -8.5 3.5t-3.5 8.5v32q0 3 -2 3.5t-4 -1.5q-49 -54 -142 -54q-75 0 -123.5 38t-48.5 113q0 78 54.5 121.5t153.5 43.5h107q5 0 5 5v24q0 39 -23 60.5t-69 21.5q-38 0 -61.5 -13.5t-29.5 -37.5
q-3 -12 -14 -10l-97 12q-5 1 -8.5 3.5t-2.5 6.5q8 61 65.5 100t144.5 39q63 0 111 -22zM317 110q35 26 35 66v47q0 5 -5 5h-84q-53 0 -83.5 -20t-30.5 -57q0 -32 23.5 -49.5t60.5 -17.5q49 0 84 26zM161 602q-41 30 -46 77v2q0 10 11 10h48q10 0 12 -11q5 -23 25.5 -37
t48.5 -14q29 0 50 14t26 37q2 11 12 11h46q13 0 11 -10q-5 -48 -45 -78.5t-100 -30.5q-58 0 -99 30zM212 731q-2 4 1 10l55 103q4 8 15 8h79q7 0 9.5 -4.5t-1.5 -10.5l-69 -102q-5 -8 -14 -8h-66q-7 0 -9 4z" />
    <glyph glyph-name="uni1EB0" unicode="&#x1eb0;" horiz-adv-x="648" 
d="M494 10l-33 107q-2 4 -5 4h-264q-3 0 -5 -4l-33 -107q-3 -10 -13 -10h-100q-6 0 -9 3.5t-1 10.5l217 676q3 10 13 10h125q10 0 13 -10l218 -676q1 -2 1 -5q0 -9 -11 -9h-100q-10 0 -13 10zM222 212h203q6 0 4 6l-103 335q-1 4 -3 4t-3 -4l-102 -335q-1 -6 4 -6zM223 791
q-41 30 -46 77v2q0 10 11 10h48q10 0 12 -11q5 -23 25.5 -37t48.5 -14q29 0 50 14t26 37q2 11 12 11h46q13 0 11 -10q-5 -48 -45 -78.5t-100 -30.5q-58 0 -99 30zM367 924q0 -8 -10 -8h-66q-9 0 -14 8l-69 102q-2 4 -2 7q0 8 10 8h79q11 0 15 -8l55 -103q2 -4 2 -6z" />
    <glyph glyph-name="uni1EB1" unicode="&#x1eb1;" horiz-adv-x="522" 
d="M368 497q48 -22 74 -60.5t26 -87.5v-337q0 -5 -3.5 -8.5t-8.5 -3.5h-92q-5 0 -8.5 3.5t-3.5 8.5v32q0 3 -2 3.5t-4 -1.5q-49 -54 -142 -54q-75 0 -123.5 38t-48.5 113q0 78 54.5 121.5t153.5 43.5h107q5 0 5 5v24q0 39 -23 60.5t-69 21.5q-38 0 -61.5 -13.5t-29.5 -37.5
q-3 -12 -14 -10l-97 12q-5 1 -8.5 3.5t-2.5 6.5q8 61 65.5 100t144.5 39q63 0 111 -22zM317 110q35 26 35 66v47q0 5 -5 5h-84q-53 0 -83.5 -20t-30.5 -57q0 -32 23.5 -49.5t60.5 -17.5q49 0 84 26zM161 602q-41 30 -46 77v2q0 10 11 10h48q10 0 12 -11q5 -23 25.5 -37
t48.5 -14q29 0 50 14t26 37q2 11 12 11h46q13 0 11 -10q-5 -48 -45 -78.5t-100 -30.5q-58 0 -99 30zM305 735q0 -8 -10 -8h-66q-9 0 -14 8l-69 102q-2 4 -2 7q0 8 10 8h79q11 0 15 -8l55 -103q2 -4 2 -6z" />
    <glyph glyph-name="uni1EB2" unicode="&#x1eb2;" horiz-adv-x="648" 
d="M494 10l-33 107q-2 4 -5 4h-264q-3 0 -5 -4l-33 -107q-3 -10 -13 -10h-100q-6 0 -9 3.5t-1 10.5l217 676q3 10 13 10h125q10 0 13 -10l218 -676q1 -2 1 -5q0 -9 -11 -9h-100q-10 0 -13 10zM222 212h203q6 0 4 6l-103 335q-1 4 -3 4t-3 -4l-102 -335q-1 -6 4 -6zM223 791
q-41 30 -46 77v2q0 10 11 10h48q10 0 12 -11q5 -23 25.5 -37t48.5 -14q29 0 50 14t26 37q2 11 12 11h46q13 0 11 -10q-5 -48 -45 -78.5t-100 -30.5q-58 0 -99 30zM304.5 907q-2.5 4 -0.5 10q11 27 33 49q11 11 16 19.5t5 22.5q0 11 -10 20t-23 9q-14 0 -24 -7t-24 -25
q-4 -6 -10 -6q-5 0 -8 3l-26 19q-5 3 -5 9q0 5 2 8q21 30 42.5 43t55.5 13q42 0 67.5 -23t25.5 -63q0 -23 -9.5 -38t-28.5 -34q-18 -18 -26 -32q-6 -11 -15 -8l-29 6q-6 1 -8.5 5z" />
    <glyph glyph-name="uni1EB3" unicode="&#x1eb3;" horiz-adv-x="522" 
d="M368 497q48 -22 74 -60.5t26 -87.5v-337q0 -5 -3.5 -8.5t-8.5 -3.5h-92q-5 0 -8.5 3.5t-3.5 8.5v32q0 3 -2 3.5t-4 -1.5q-49 -54 -142 -54q-75 0 -123.5 38t-48.5 113q0 78 54.5 121.5t153.5 43.5h107q5 0 5 5v24q0 39 -23 60.5t-69 21.5q-38 0 -61.5 -13.5t-29.5 -37.5
q-3 -12 -14 -10l-97 12q-5 1 -8.5 3.5t-2.5 6.5q8 61 65.5 100t144.5 39q63 0 111 -22zM317 110q35 26 35 66v47q0 5 -5 5h-84q-53 0 -83.5 -20t-30.5 -57q0 -32 23.5 -49.5t60.5 -17.5q49 0 84 26zM161 602q-41 30 -46 77v2q0 10 11 10h48q10 0 12 -11q5 -23 25.5 -37
t48.5 -14q29 0 50 14t26 37q2 11 12 11h46q13 0 11 -10q-5 -48 -45 -78.5t-100 -30.5q-58 0 -99 30zM242.5 718q-2.5 4 -0.5 10q11 27 33 49q11 11 16 19.5t5 22.5q0 11 -10 20t-23 9q-14 0 -24 -7t-24 -25q-4 -6 -10 -6q-5 0 -8 3l-26 19q-5 3 -5 9q0 5 2 8q21 30 42.5 43
t55.5 13q42 0 67.5 -23t25.5 -63q0 -23 -9.5 -38t-28.5 -34q-18 -18 -26 -32q-6 -11 -15 -8l-29 6q-6 1 -8.5 5z" />
    <glyph glyph-name="uni1EB4" unicode="&#x1eb4;" horiz-adv-x="648" 
d="M494 10l-33 107q-2 4 -5 4h-264q-3 0 -5 -4l-33 -107q-3 -10 -13 -10h-100q-6 0 -9 3.5t-1 10.5l217 676q3 10 13 10h125q10 0 13 -10l218 -676q1 -2 1 -5q0 -9 -11 -9h-100q-10 0 -13 10zM222 212h203q6 0 4 6l-103 335q-1 4 -3 4t-3 -4l-102 -335q-1 -6 4 -6z
M352.5 911.5q-12.5 4.5 -28.5 13.5q-17 8 -26 11.5t-19 3.5q-28 0 -47 -19q-5 -5 -10 -5q-4 0 -7 4l-28 28q-8 8 -2 17q32 51 88 51q16 0 28.5 -4.5t23 -9.5t13.5 -7q4 -2 13.5 -7t17 -7.5t14.5 -2.5q27 0 43 21q5 6 10 6q4 0 7 -4l25 -29q7 -9 3 -15q-12 -23 -35.5 -36.5
t-52.5 -13.5q-18 0 -30.5 4.5zM223 791q-41 30 -46 77v2q0 10 11 10h48q10 0 12 -11q4 -22 25 -36.5t49 -14.5q29 0 50 14t26 37q2 11 12 11h46q12 0 12 -10q-5 -47 -45.5 -78t-100.5 -31q-58 0 -99 30z" />
    <glyph glyph-name="uni1EB5" unicode="&#x1eb5;" horiz-adv-x="522" 
d="M368 497q48 -22 74 -60.5t26 -87.5v-337q0 -5 -3.5 -8.5t-8.5 -3.5h-92q-5 0 -8.5 3.5t-3.5 8.5v32q0 3 -2 3.5t-4 -1.5q-49 -54 -142 -54q-75 0 -123.5 38t-48.5 113q0 78 54.5 121.5t153.5 43.5h107q5 0 5 5v24q0 39 -23 60.5t-69 21.5q-38 0 -61.5 -13.5t-29.5 -37.5
q-3 -12 -14 -10l-97 12q-5 1 -8.5 3.5t-2.5 6.5q8 61 65.5 100t144.5 39q63 0 111 -22zM317 110q35 26 35 66v47q0 5 -5 5h-84q-53 0 -83.5 -20t-30.5 -57q0 -32 23.5 -49.5t60.5 -17.5q49 0 84 26zM290.5 722.5q-12.5 4.5 -28.5 13.5q-17 8 -26 11.5t-19 3.5q-28 0 -47 -19
q-5 -5 -10 -5q-4 0 -7 4l-28 28q-8 8 -2 17q32 51 88 51q16 0 28.5 -4.5t23 -9.5t13.5 -7q4 -2 13.5 -7t17 -7.5t14.5 -2.5q27 0 43 21q5 6 10 6q4 0 7 -4l25 -29q7 -9 3 -15q-12 -23 -35.5 -36.5t-52.5 -13.5q-18 0 -30.5 4.5zM161 602q-41 30 -46 77v2q0 10 11 10h48
q10 0 12 -11q4 -22 25 -36.5t49 -14.5q29 0 50 14t26 37q2 11 12 11h46q12 0 12 -10q-5 -47 -45.5 -78t-100.5 -31q-58 0 -99 30z" />
    <glyph glyph-name="uni1EB6" unicode="&#x1eb6;" horiz-adv-x="648" 
d="M494 10l-33 107q-2 4 -5 4h-264q-3 0 -5 -4l-33 -107q-3 -10 -13 -10h-100q-6 0 -9 3.5t-1 10.5l217 676q3 10 13 10h125q10 0 13 -10l218 -676q1 -2 1 -5q0 -9 -11 -9h-100q-10 0 -13 10zM222 212h203q6 0 4 6l-103 335q-1 4 -3 4t-3 -4l-102 -335q-1 -6 4 -6z
M276 -185.5q-19 19.5 -19 48.5t19 48t49 19q29 0 48 -19t19 -48t-19 -48.5t-48 -19.5q-30 0 -49 19.5zM223 791q-41 30 -46 77v2q0 10 11 10h48q10 0 12 -11q5 -23 25.5 -37t48.5 -14q29 0 50 14t26 37q2 11 12 11h46q13 0 11 -10q-5 -48 -45 -78.5t-100 -30.5q-58 0 -99 30
z" />
    <glyph glyph-name="uni1EB7" unicode="&#x1eb7;" horiz-adv-x="522" 
d="M368 497q48 -22 74 -60.5t26 -87.5v-337q0 -5 -3.5 -8.5t-8.5 -3.5h-92q-5 0 -8.5 3.5t-3.5 8.5v32q0 3 -2 3.5t-4 -1.5q-49 -54 -142 -54q-75 0 -123.5 38t-48.5 113q0 78 54.5 121.5t153.5 43.5h107q5 0 5 5v24q0 39 -23 60.5t-69 21.5q-38 0 -61.5 -13.5t-29.5 -37.5
q-3 -12 -14 -10l-97 12q-5 1 -8.5 3.5t-2.5 6.5q8 61 65.5 100t144.5 39q63 0 111 -22zM317 110q35 26 35 66v47q0 5 -5 5h-84q-53 0 -83.5 -20t-30.5 -57q0 -32 23.5 -49.5t60.5 -17.5q49 0 84 26zM213 -185.5q-19 19.5 -19 48.5t19 48t49 19q29 0 48 -19t19 -48t-19 -48.5
t-48 -19.5q-30 0 -49 19.5zM162 602q-41 30 -46 77v2q0 10 11 10h48q10 0 12 -11q5 -23 25.5 -37t48.5 -14q29 0 50 14t26 37q2 11 12 11h46q13 0 11 -10q-5 -48 -45 -78.5t-100 -30.5q-58 0 -99 30z" />
    <glyph glyph-name="uni1EB8" unicode="&#x1eb8;" horiz-adv-x="592" 
d="M543.5 603.5q-3.5 -3.5 -8.5 -3.5h-341q-5 0 -5 -5v-187q0 -5 5 -5h229q5 0 8.5 -3.5t3.5 -8.5v-76q0 -5 -3.5 -8.5t-8.5 -3.5h-229q-5 0 -5 -5v-193q0 -5 5 -5h341q5 0 8.5 -3.5t3.5 -8.5v-76q0 -5 -3.5 -8.5t-8.5 -3.5h-450q-5 0 -8.5 3.5t-3.5 8.5v676q0 5 3.5 8.5
t8.5 3.5h450q5 0 8.5 -3.5t3.5 -8.5v-76q0 -5 -3.5 -8.5zM265 -185.5q-19 19.5 -19 48.5t19 48t49 19q29 0 48 -19t19 -48t-19 -48.5t-48 -19.5q-30 0 -49 19.5z" />
    <glyph glyph-name="uni1EB9" unicode="&#x1eb9;" horiz-adv-x="540" 
d="M497 257l-1 -31q0 -12 -12 -12h-313q-5 0 -5 -5q3 -33 9 -45q24 -72 117 -73q68 0 108 56q4 6 10 6q4 0 7 -3l62 -51q9 -7 3 -16q-31 -44 -82.5 -68t-114.5 -24q-78 0 -132.5 35t-79.5 98q-23 54 -23 150q0 58 12 94q20 70 75.5 110.5t133.5 40.5q197 0 222 -206
q4 -25 4 -56zM209.5 400.5q-24.5 -18.5 -34.5 -51.5q-6 -17 -8 -44q-2 -5 4 -5h203q5 0 5 5q-2 25 -6 38q-9 36 -35.5 56t-66.5 20q-37 0 -61.5 -18.5zM232 -194.5q-19 19.5 -19 48.5t19 48t49 19q29 0 48 -19t19 -48t-19 -48.5t-48 -19.5q-30 0 -49 19.5z" />
    <glyph glyph-name="uni1EBA" unicode="&#x1eba;" horiz-adv-x="592" 
d="M543.5 603.5q-3.5 -3.5 -8.5 -3.5h-341q-5 0 -5 -5v-187q0 -5 5 -5h229q5 0 8.5 -3.5t3.5 -8.5v-76q0 -5 -3.5 -8.5t-8.5 -3.5h-229q-5 0 -5 -5v-193q0 -5 5 -5h341q5 0 8.5 -3.5t3.5 -8.5v-76q0 -5 -3.5 -8.5t-8.5 -3.5h-450q-5 0 -8.5 3.5t-3.5 8.5v676q0 5 3.5 8.5
t8.5 3.5h450q5 0 8.5 -3.5t3.5 -8.5v-76q0 -5 -3.5 -8.5zM288.5 752q-2.5 4 -0.5 10q11 27 33 49q11 11 16 19.5t5 22.5q0 11 -10 20t-23 9q-14 0 -24 -7t-24 -25q-4 -6 -10 -6q-5 0 -8 3l-26 19q-5 3 -5 9q0 5 2 8q21 30 42.5 43t55.5 13q42 0 67.5 -23t25.5 -63
q0 -23 -9.5 -38t-28.5 -34q-18 -18 -26 -32q-6 -11 -15 -8l-29 6q-6 1 -8.5 5z" />
    <glyph glyph-name="uni1EBB" unicode="&#x1ebb;" horiz-adv-x="540" 
d="M497 257l-1 -31q0 -12 -12 -12h-313q-5 0 -5 -5q3 -33 9 -45q24 -72 117 -73q68 0 108 56q4 6 10 6q4 0 7 -3l62 -51q9 -7 3 -16q-31 -44 -82.5 -68t-114.5 -24q-78 0 -132.5 35t-79.5 98q-23 54 -23 150q0 58 12 94q20 70 75.5 110.5t133.5 40.5q197 0 222 -206
q4 -25 4 -56zM209.5 400.5q-24.5 -18.5 -34.5 -51.5q-6 -17 -8 -44q-2 -5 4 -5h203q5 0 5 5q-2 25 -6 38q-9 36 -35.5 56t-66.5 20q-37 0 -61.5 -18.5zM250.5 563q-2.5 4 -0.5 10q11 27 33 49q11 11 16 19.5t5 22.5q0 11 -10 20t-23 9q-14 0 -24 -7t-24 -25q-4 -6 -10 -6
q-5 0 -8 3l-26 19q-5 3 -5 9q0 5 2 8q21 30 42.5 43t55.5 13q42 0 67.5 -23t25.5 -63q0 -23 -9.5 -38t-28.5 -34q-18 -18 -26 -32q-6 -11 -15 -8l-29 6q-6 1 -8.5 5z" />
    <glyph glyph-name="uni1EBC" unicode="&#x1ebc;" horiz-adv-x="592" 
d="M543.5 603.5q-3.5 -3.5 -8.5 -3.5h-341q-5 0 -5 -5v-187q0 -5 5 -5h229q5 0 8.5 -3.5t3.5 -8.5v-76q0 -5 -3.5 -8.5t-8.5 -3.5h-229q-5 0 -5 -5v-193q0 -5 5 -5h341q5 0 8.5 -3.5t3.5 -8.5v-76q0 -5 -3.5 -8.5t-8.5 -3.5h-450q-5 0 -8.5 3.5t-3.5 8.5v676q0 5 3.5 8.5
t8.5 3.5h450q5 0 8.5 -3.5t3.5 -8.5v-76q0 -5 -3.5 -8.5zM337 777.5q-13 4.5 -33 14.5q-3 2 -14.5 7.5t-19.5 8t-16 2.5q-17 0 -29.5 -5.5t-23.5 -17.5q-5 -5 -10 -5q-4 0 -7 4l-32 34q-8 8 -2 16q16 27 41.5 42t56.5 15q20 0 34 -5.5t37 -17.5q19 -10 29 -14t21 -4
q30 0 50 25q5 5 9 5q5 0 8 -4l29 -34q6 -7 3 -15q-13 -26 -39.5 -41t-59.5 -15q-19 0 -32 4.5z" />
    <glyph glyph-name="uni1EBD" unicode="&#x1ebd;" horiz-adv-x="540" 
d="M497 257l-1 -31q0 -12 -12 -12h-313q-5 0 -5 -5q3 -33 9 -45q24 -72 117 -73q68 0 108 56q4 6 10 6q4 0 7 -3l62 -51q9 -7 3 -16q-31 -44 -82.5 -68t-114.5 -24q-78 0 -132.5 35t-79.5 98q-23 54 -23 150q0 58 12 94q20 70 75.5 110.5t133.5 40.5q197 0 222 -206
q4 -25 4 -56zM209.5 400.5q-24.5 -18.5 -34.5 -51.5q-6 -17 -8 -44q-2 -5 4 -5h203q5 0 5 5q-2 25 -6 38q-9 36 -35.5 56t-66.5 20q-37 0 -61.5 -18.5zM300 588.5q-13 4.5 -33 14.5q-3 2 -14.5 7.5t-19.5 8t-16 2.5q-17 0 -29.5 -5.5t-23.5 -17.5q-5 -5 -10 -5q-4 0 -7 4
l-32 34q-8 8 -2 16q16 27 41.5 42t56.5 15q20 0 34 -5.5t37 -17.5q19 -10 29 -14t21 -4q30 0 50 25q5 5 9 5q5 0 8 -4l29 -34q6 -7 3 -15q-13 -26 -39.5 -41t-59.5 -15q-19 0 -32 4.5z" />
    <glyph glyph-name="uni1EBE" unicode="&#x1ebe;" horiz-adv-x="592" 
d="M543.5 603.5q-3.5 -3.5 -8.5 -3.5h-341q-5 0 -5 -5v-187q0 -5 5 -5h229q5 0 8.5 -3.5t3.5 -8.5v-76q0 -5 -3.5 -8.5t-8.5 -3.5h-229q-5 0 -5 -5v-193q0 -5 5 -5h341q5 0 8.5 -3.5t3.5 -8.5v-76q0 -5 -3.5 -8.5t-8.5 -3.5h-450q-5 0 -8.5 3.5t-3.5 8.5v676q0 5 3.5 8.5
t8.5 3.5h450q5 0 8.5 -3.5t3.5 -8.5v-76q0 -5 -3.5 -8.5zM161 766.5q-2 4.5 2 10.5l76 105q5 7 14 7h105q9 0 14 -7l76 -105q3 -4 3 -8q0 -7 -10 -7h-70q-9 0 -14 8l-47 67q-2 2 -4 2t-3 -2l-47 -67q-5 -8 -14 -8h-71q-8 0 -10 4.5zM449 843q-2 4 1 10l55 103q4 8 15 8h79
q7 0 9.5 -4.5t-1.5 -10.5l-69 -102q-5 -8 -14 -8h-66q-7 0 -9 4z" />
    <glyph glyph-name="uni1EBF" unicode="&#x1ebf;" horiz-adv-x="540" 
d="M497 257l-1 -31q0 -12 -12 -12h-313q-5 0 -5 -5q3 -33 9 -45q24 -72 117 -73q68 0 108 56q4 6 10 6q4 0 7 -3l62 -51q9 -7 3 -16q-31 -44 -82.5 -68t-114.5 -24q-78 0 -132.5 35t-79.5 98q-23 54 -23 150q0 58 12 94q20 70 75.5 110.5t133.5 40.5q197 0 222 -206
q4 -25 4 -56zM209.5 400.5q-24.5 -18.5 -34.5 -51.5q-6 -17 -8 -44q-2 -5 4 -5h203q5 0 5 5q-2 25 -6 38q-9 36 -35.5 56t-66.5 20q-37 0 -61.5 -18.5zM123 577.5q-2 4.5 2 10.5l76 105q5 7 14 7h105q9 0 14 -7l76 -105q3 -4 3 -8q0 -7 -10 -7h-70q-9 0 -14 8l-47 67
q-2 2 -4 2t-3 -2l-47 -67q-5 -8 -14 -8h-71q-8 0 -10 4.5zM411 654q-2 4 1 10l55 103q4 8 15 8h79q7 0 9.5 -4.5t-1.5 -10.5l-69 -102q-5 -8 -14 -8h-66q-7 0 -9 4z" />
    <glyph glyph-name="uni1EC0" unicode="&#x1ec0;" horiz-adv-x="592" 
d="M543.5 603.5q-3.5 -3.5 -8.5 -3.5h-341q-5 0 -5 -5v-187q0 -5 5 -5h229q5 0 8.5 -3.5t3.5 -8.5v-76q0 -5 -3.5 -8.5t-8.5 -3.5h-229q-5 0 -5 -5v-193q0 -5 5 -5h341q5 0 8.5 -3.5t3.5 -8.5v-76q0 -5 -3.5 -8.5t-8.5 -3.5h-450q-5 0 -8.5 3.5t-3.5 8.5v676q0 5 3.5 8.5
t8.5 3.5h450q5 0 8.5 -3.5t3.5 -8.5v-76q0 -5 -3.5 -8.5zM161 766.5q-2 4.5 2 10.5l76 105q5 7 14 7h105q9 0 14 -7l76 -105q3 -4 3 -8q0 -7 -10 -7h-70q-9 0 -14 8l-47 67q-2 2 -4 2t-3 -2l-47 -67q-5 -8 -14 -8h-71q-8 0 -10 4.5zM519 889q0 -8 -10 -8h-66q-9 0 -14 8
l-69 102q-2 4 -2 7q0 8 10 8h79q11 0 15 -8l55 -103q2 -4 2 -6z" />
    <glyph glyph-name="uni1EC1" unicode="&#x1ec1;" horiz-adv-x="540" 
d="M497 257l-1 -31q0 -12 -12 -12h-313q-5 0 -5 -5q3 -33 9 -45q24 -72 117 -73q68 0 108 56q4 6 10 6q4 0 7 -3l62 -51q9 -7 3 -16q-31 -44 -82.5 -68t-114.5 -24q-78 0 -132.5 35t-79.5 98q-23 54 -23 150q0 58 12 94q20 70 75.5 110.5t133.5 40.5q197 0 222 -206
q4 -25 4 -56zM209.5 400.5q-24.5 -18.5 -34.5 -51.5q-6 -17 -8 -44q-2 -5 4 -5h203q5 0 5 5q-2 25 -6 38q-9 36 -35.5 56t-66.5 20q-37 0 -61.5 -18.5zM124 577.5q-2 4.5 2 10.5l76 105q5 7 14 7h105q9 0 14 -7l76 -105q3 -4 3 -8q0 -7 -10 -7h-70q-9 0 -14 8l-47 67
q-2 2 -4 2t-3 -2l-47 -67q-5 -8 -14 -8h-71q-8 0 -10 4.5zM482 700q0 -8 -10 -8h-66q-9 0 -14 8l-69 102q-2 4 -2 7q0 8 10 8h79q11 0 15 -8l55 -103q2 -4 2 -6z" />
    <glyph glyph-name="uni1EC2" unicode="&#x1ec2;" horiz-adv-x="592" 
d="M543.5 603.5q-3.5 -3.5 -8.5 -3.5h-341q-5 0 -5 -5v-187q0 -5 5 -5h229q5 0 8.5 -3.5t3.5 -8.5v-76q0 -5 -3.5 -8.5t-8.5 -3.5h-229q-5 0 -5 -5v-193q0 -5 5 -5h341q5 0 8.5 -3.5t3.5 -8.5v-76q0 -5 -3.5 -8.5t-8.5 -3.5h-450q-5 0 -8.5 3.5t-3.5 8.5v676q0 5 3.5 8.5
t8.5 3.5h450q5 0 8.5 -3.5t3.5 -8.5v-76q0 -5 -3.5 -8.5zM161 766.5q-2 4.5 2 10.5l76 105q5 7 14 7h105q9 0 14 -7l76 -105q3 -4 3 -8q0 -7 -10 -7h-70q-9 0 -14 8l-47 67q-2 2 -4 2t-3 -2l-47 -67q-5 -8 -14 -8h-71q-8 0 -10 4.5zM428.5 873q-2.5 4 -0.5 10q11 27 33 49
q11 11 16 19.5t5 22.5q0 11 -10 20t-23 9q-14 0 -24 -7t-24 -25q-4 -6 -10 -6q-5 0 -8 3l-26 19q-5 3 -5 9q0 5 2 8q21 30 42.5 43t55.5 13q42 0 67.5 -23t25.5 -63q0 -23 -9.5 -38t-28.5 -34q-18 -18 -26 -32q-6 -11 -15 -8l-29 6q-6 1 -8.5 5z" />
    </font>
</defs>
</svg>
